BitTorrentTracker PerecTracker.org
BitTorrentTracker PerecTracker.org
    
Регистрация  ·  Вход
 
 · 
Забыли пароль?

  • Тряпичный союз (Михаил Местецкий) [2016, комедия, драма, WEB-DLRip]

    Ответить на тему
     
    Автор Сообщение

    Flirldrerve

    Создавать темы 28-Мар-2016 08:34

           

    [Цитировать]

    -Тряпичный союз-Жанр: комедия, драма
    Год выпуска: 2016
    Продолжительность: 01:38:40-Режиссёр: Михаил Местецкий-В ролях:Иван Янковский, Александр Паль, Василий Буткевич, Павел Чинарёв, Анастасия Пронина, Федор Лавров, Елена Нестерова, Владислав Ветров, Кирилл Кяро, Андрей Крыжний-Описание: Жизнь тихого подростка Вани меняется после знакомства с тремя очень странными парнями. Спортсмены, хулиганы, мечтатели, они называют себя «Тряпичный Союз» и верят, что изменят весь мир. Очарованный новой дружбой, Ваня поселяет парней у себя на даче и всеми силами пытается стать частью их «величайшей организации». Но у соседской девочки Саши свои планы на эту компанию.- -Качество видео:WEB-DLRip
    Формат видео: AVI
    Видео:656x368 (16:9), 24.000 fps,XviD build 73 ~919 kbps avg, 0.159 bit/pixel
    Аудио: 48 kHz, MP3, 2 (ch), ~128 kbps-

    MediaInfo

    General
    Complete name : D:\Фильмы\TrapixniySoyuz2015\Тряпичный Союз 2015 WEB-DLRip..avi
    Format : AVI
    Format/Info : Audio Video Interleave
    File size : 746 MiB
    Duration : 1h 38mn
    Overall bit rate : 1 057 Kbps
    Writing application : VirtualDubMod 1.5.10.3 | www.virtualdub-fr.org || (build 2550/release)
    Writing library : VirtualDubMod build 2550/release
    Video
    ID : 0
    Format : MPEG-4 Visual
    Format profile : Advanced Simple@L5
    Format settings, BVOP : 2
    Format settings, QPel : No
    Format settings, GMC : No warppoints
    Format settings, Matrix : Custom
    Codec ID : XVID
    Codec ID/Hint : XviD
    Duration : 1h 38mn
    Bit rate : 919 Kbps
    Width : 656 pixels
    Height : 368 pixels
    Display aspect ratio : 16:9
    Frame rate : 24.000 fps
    Color space : YUV
    Chroma subsampling : 4:2:0
    Bit depth : 8 bits
    Scan type : Progressive
    Compression mode : Lossy
    Bits/(Pixel*Frame) : 0.159
    Stream size : 649 MiB (87%)
    Writing library : XviD 73
    Audio
    ID : 1
    Format : MPEG Audio
    Format version : Version 1
    Format profile : Layer 3
    Codec ID : 55
    Codec ID/Hint : MP3
    Duration : 1h 38mn
    Bit rate mode : Constant
    Bit rate : 128 Kbps
    Channel(s) : 2 channels
    Sampling rate : 48.0 KHz
    Compression mode : Lossy
    Stream size : 90.3 MiB (12%)
    Alignment : Aligned on interleaves
    Interleave, duration : 42 ms (1.00 video frame)
    Interleave, preload duratio : 504 ms
    Writing library : LAME3.99r
    Encoding settings : -m s -V 4 -q 2 -lowpass 17 -b 128

    -

    Скриншот c названием фильма

    Скриншоты

    -
    Скачать .torrent

    Скачать торрент-файл бесплатно и на максимальной скорости!

    Как скачивать? · Что такое торрент? · Рейтинг и ограничения

    !ВНИМАНИЕ!
    Сайт не распространяет и не хранит электронные версии произведений, а занимается лишь лишь предоставлением доступа к создаваемому пользователями каталогу ссылок на торрент-файлы, которые содержат только списки хеш-сумм, убедительная просьба с жалобами обращаться напрямую к пользователю. Файлы для обмена на трекере предоставлены пользователями сайта, и администрация не несёт ответственности за их содержание. Просьба не заливать файлы, защищенные авторскими правами, а также файлы нелегального содержания!


    _________________
    [Профиль] [ЛС]
    Показать сообщения:    
    Ответить на тему

    Текущее время: Сегодня, в 12:11

    Часовой пояс: GMT + 2



    Вы не можете начинать темы
    Вы не можете отвечать на сообщения
    Вы не можете редактировать свои сообщения
    Вы не можете удалять свои сообщения
    Вы не можете голосовать в опросах
    Вы не можете прикреплять файлы к сообщениям
    Вы не можете скачивать файлы