Register  ·  Log in
Forgot password?

  • Девушка из Дании / The Danish Girl (Том Хупер / Tom Hooper) [2015, Великобритания, Германия, США, Драма, биография, HDRip] Dub (iTunes)

    Reply to topic
    Author Message


    Post 28-Mar-2016 09:34



    Девушка из Дании / The Danish Girl
    «Find the courage to be yourself»
    -Страна: Великобритания, Германия, США
    Жанр: Драма, биография
    Год выпуска: 2015
    Продолжительность: 01:59:32-Перевод: Профессиональный (дублированный) - iTunes
    Cубтитры: нет-Режиссер: Том Хупер / Tom Hooper-В ролях: Эдди Редмэйн, Алисия Викандер, Эмбер Хёрд Депп, Эмиральд Феннел, Маттиас Шонартс, Бен Уишоу, Себастьян Кох, Грэхэм Рут, Косима Шоу, Виктория Эмсли, Туссе Сильберг-Описание: Действие происходит в 1920-х годах в Копенгагене. Иллюстратор и художник Герда Вегенер просит своего мужа Эйнара Вегенера попозировать в качестве женской модели. Портреты приобретают популярность и Герда продолжает писать картины со своим мужем в качестве женщины. Эйнару нравится собственная женская внешность и он начинает жить под именем Лили Эльбе. Впоследствии Эльбе становится первым человеком, прошедшим хирургическую коррекцию пола.- l -Качество видео: HDRip
    Формат видео: AVI-Видео: 720x384 (1.85:1), 23.976 fps, XviD build 50, 1242 Kbps
    Аудио: 48 kHz, AC3 Dolby Digital, 3/2 (L,C,R,l,r) + LFE ch, 384 Kbps--


    Complete name : Downloads\The.Danish.Girl.2015.HDRip.1400MB
    Format : AVI
    Format/Info : Audio Video Interleave
    File size : 1.37 GiB
    Duration : 1h 59mn
    Overall bit rate : 1 635 Kbps
    Writing application : VirtualDubMod (build 2540/release)
    Writing library : VirtualDubMod build 2540/release
    Video #0
    ID : 0
    Format : MPEG-4 Visual
    Format profile : Advanced Simple@L5
    Format settings, BVOP : 2
    Format settings, QPel : No
    Format settings, GMC : No warppoints
    Format settings, Matrix : Custom
    Codec ID : XVID
    Codec ID/Hint : XviD
    Duration : 1h 59mn
    Bit rate : 1 242 Kbps
    Width : 720 pixels
    Height : 384 pixels
    Display aspect ratio : 1.85:1
    Frame rate : 23.976 fps
    Color space : YUV
    Chroma subsampling : 4:2:0
    Bit depth : 8 bits
    Scan type : Progressive
    Compression mode : Lossy
    Bits/(Pixel*Frame) : 0.187
    Stream size : 1.04 GiB (76%)
    Writing library : XviD 1.2.1 (UTC 2008-12-04)
    Audio #1
    ID : 1
    Format : AC-3
    Format/Info : Audio Coding 3
    Mode extension : CM (complete main)
    Format settings, Endianness : Big
    Codec ID : 2000
    Duration : 1h 59mn
    Bit rate mode : Constant
    Bit rate : 384 Kbps
    Channel(s) : 6 channels
    Channel positions : Front: L C R, Side: L R, LFE
    Sampling rate : 48.0 KHz
    Bit depth : 16 bits
    Compression mode : Lossy
    Delay relative to video : 16ms
    Stream size : 328 MiB (23%)
    Alignment : Split accross interleaves
    Interleave, duration : 42 ms (1.00 video frame)
    Interleave, preload duration : 500 ms

    Скриншот c названием фильма


    Download .torrent

    Download free and at maximum speed!

    How to Download? · What is a torrent? · Ratings and Limitations

    The site does not extend and does not store electronic(digital) versions of products, and only gives access to a reference catalogue created by users on torrent-files which contain only lists of the hash-sums, the earnest entreaty, with complaints(abuse) to access directly to the user. Files for an exchange on tracker are given by users of a site, and the administration does not bear the responsibility for their maintenance. The request to not fill in the files protected by copyrights, and also files of the illegal maintenance!

    [Profile] [PM]
    Display posts from previous:    
    Reply to topic

    The time now is: Today 09:14

    All times are GMT + 3 Hours

    You cannot post new topics in this forum
    You cannot reply to topics in this forum
    You cannot edit your posts in this forum
    You cannot delete your posts in this forum
    You cannot vote in polls in this forum
    You cannot attach files in this forum
    You cannot download files in this forum