BitTorrentTracker PerecTracker.org
BitTorrentTracker PerecTracker.org
    
Регистрация  ·  Вход
 
 · 
Забыли пароль?

  • Заброшенный / Forsaken (Джон Кассар / Jon Cassar) [2015, Канада, Франция, США, драма, вестерн, BDRip-AVC] MVO (FocusStudio) + Original + Sub (rus, eng)

    Ответить на тему
     
    Автор Сообщение

    Light

    Создавать темы 28-Мар-2016 08:34

           

    [Цитировать]

    Заброшенный / Forsaken-Страна: Канада, Франция, США
    Жанр: драма, вестерн
    Год выпуска: 2015
    Продолжительность: 01:29:36
    Перевод: Профессиональный (многоголосый, закадровый) (FocusStudio)
    Оригинальная аудиодорожка: английский
    Cубтитры: русские (полные), английские (полные, SDH)
    Навигация по главам: есть
    Режиссёр: Джон Кассар / Jon Cassar
    В ролях: Кифер Сазерленд, Дональд Сазерленд, Деми Мур, Брайан Кокс, Майкл Уинкотт, Лэндон Либуарон, Шиван Уильямс, Джонни Рис, Аарон Пул, Али Уэбб, Уэсли Морган, Майкл Терриоль, Кристофер Розамунд
    Описание: Наёмный убийца Джон Генри оставляет своё кровавое ремесло и возвращается в родной город, надеясь восстановить отношения с собственным отцом. Вместе с тем местная банда терроризирует город.

    Качество видео: BDRip-AVC (исходник - BDRemux|Forsaken.2015.REMUX.1080p.BluRay.AVC.DTS-HD.MA5.1-iFT)
    Формат видео: MKV
    Видео: x264, 1152x480 (2.40:1), 23,976 fps, ~2585 kbps, 0.195 bit/pixel
    Аудио 1: 48 kHz, AC3 Dolby Digital, 3/2 (L,C,R,l,r) + LFE ch, ~448 kbps [русский]
    Аудио 2: 48 kHz, AC3 Dolby Digital, 3/2 (L,C,R,l,r) + LFE ch, ~448 kbps [английский]
    Формат субтитров: softsub (SRT)
    MediaInfo | x264 log
    Format : Matroska
    Format version : Version 4 / Version 2
    File size : 2.18 GiB
    Duration : 1h 29mn
    Overall bit rate : 3 479 Kbps
    Movie name : Заброшенный / Forsaken (2015) :: AFM ::
    Encoded date : UTC 2016-03-28 01:19:15
    Writing application : mkvmerge v8.3.0 ('Over the Horizon') 32bit
    Writing library : libebml v1.3.1 + libmatroska v1.4.2
    Video
    ID : 1
    Format : AVC
    Format/Info : Advanced Video Codec
    Format profile : High@L4.1
    Format settings, CABAC : Yes
    Format settings, ReFrames : 11 frames
    Codec ID : V_MPEG4/ISO/AVC
    Duration : 1h 29mn
    Bit rate : 2 585 Kbps
    Width : 1 152 pixels
    Height : 480 pixels
    Display aspect ratio : 2.40:1
    Frame rate mode : Constant
    Frame rate : 23.976 fps
    Color space : YUV
    Chroma subsampling : 4:2:0
    Bit depth : 8 bits
    Scan type : Progressive
    Bits/(Pixel*Frame) : 0.195
    Stream size : 1.57 GiB (72%)
    Title : BDRip by AFM [RuTracker.org]
    Writing library : x264 core 148 r2665+53 6629127 t_mod_Custom [8-bit@all X86_64]
    Encoding settings : cabac=1 / ref=11 / deblock=1:-3:-2 / analyse=0x3:0x113 / me=umh / subme=10 / psy=1 / fade_compensate=0.00 / psy_rd=1.00:0.00 / mixed_ref=1 / me_range=32 / chroma_me=1 / trellis=2 / 8x8dct=1 / cqm=0 / deadzone=21,11 / fast_pskip=0 / chroma_qp_offset=-2 / threads=6 / lookahead_threads=1 / sliced_threads=0 / nr=0 / decimate=0 / interlaced=0 / bluray_compat=0 / constrained_intra=0 / fgo=0 / bframes=12 / b_pyramid=2 / b_adapt=2 / b_bias=0 / direct=3 / weightb=1 / open_gop=0 / weightp=2 / keyint=250 / keyint_min=23 / scenecut=40 / intra_refresh=0 / rc_lookahead=40 / rc=2pass / mbtree=0 / bitrate=2585 / ratetol=1.0 / qcomp=0.65 / qpmin=0:0:0 / qpmax=69:69:69 / qpstep=4 / cplxblur=20.0 / qblur=0.5 / vbv_maxrate=50000 / vbv_bufsize=62500 / nal_hrd=none / filler=0 / ip_ratio=1.33 / pb_ratio=1.30 / aq=3:0.80 / aq-sensitivity=10.00 / aq-factor=1.00:1.00:1.00 / aq2=0 / aq3=0
    Language : English
    Default : Yes
    Forced : No
    Audio #1
    ID : 2
    Format : AC-3
    Format/Info : Audio Coding 3
    Mode extension : CM (complete main)
    Format settings, Endianness : Big
    Codec ID : A_AC3
    Duration : 1h 29mn
    Bit rate mode : Constant
    Bit rate : 448 Kbps
    Channel(s) : 6 channels
    Channel positions : Front: L C R, Side: L R, LFE
    Sampling rate : 48.0 KHz
    Compression mode : Lossy
    Stream size : 287 MiB (13%)
    Title : MVO - FocusStudio, AC3 5.1 ~448 kbps
    Language : Russian
    Default : Yes
    Forced : No
    Audio #2
    ID : 3
    Format : AC-3
    Format/Info : Audio Coding 3
    Mode extension : CM (complete main)
    Format settings, Endianness : Big
    Codec ID : A_AC3
    Duration : 1h 29mn
    Bit rate mode : Constant
    Bit rate : 448 Kbps
    Channel(s) : 6 channels
    Channel positions : Front: L C R, Side: L R, LFE
    Sampling rate : 48.0 KHz
    Compression mode : Lossy
    Stream size : 287 MiB (13%)
    Title : Original, AC3 5.1 ~448 kbps
    Language : English
    Default : No
    Forced : No
    Text #1
    ID : 4
    Format : UTF-8
    Codec ID : S_TEXT/UTF8
    Codec ID/Info : UTF-8 Plain Text
    Language : Russian
    Default : No
    Forced : No
    Text #2
    ID : 5
    Format : UTF-8
    Codec ID : S_TEXT/UTF8
    Codec ID/Info : UTF-8 Plain Text
    Language : English
    Default : No
    Forced : No
    Text #3
    ID : 6
    Format : UTF-8
    Codec ID : S_TEXT/UTF8
    Codec ID/Info : UTF-8 Plain Text
    Title : SDH
    Language : English
    Default : No
    Forced : No
    Menu
    00:00:00.000 : en:Chapter 01
    00:04:01.199 : en:Chapter 02
    00:10:27.043 : en:Chapter 03
    00:17:04.982 : en:Chapter 04
    00:22:49.076 : en:Chapter 05
    00:27:14.591 : en:Chapter 06
    00:33:08.861 : en:Chapter 07
    00:38:31.559 : en:Chapter 08
    00:43:52.004 : en:Chapter 09
    00:50:08.880 : en:Chapter 10
    00:55:19.065 : en:Chapter 11
    01:00:12.650 : en:Chapter 12
    01:06:26.232 : en:Chapter 13
    01:12:33.265 : en:Chapter 14
    01:19:02.320 : en:Chapter 15
    01:25:28.123 : en:Chapter 16
    01:29:36.287 : en:Chapter 17

    x264

    x264 [info]: frame I:968 Avg QP:14.36 size: 88719
    x264 [info]: frame P:27152 Avg QP:17.05 size: 30617
    x264 [info]: frame B:100787 Avg QP:18.78 size: 8111
    x264 [info]: consecutive B-frames: 2.1% 2.3% 7.2% 17.3% 16.3% 42.3% 6.5% 1.1% 1.7% 0.7% 0.8% 0.4% 1.4%
    x264 [info]: mb I I16..4: 6.1% 77.6% 16.3%
    x264 [info]: mb P I16..4: 0.8% 7.8% 0.9% P16..4: 35.6% 28.9% 17.9% 0.0% 0.0% skip: 8.1%
    x264 [info]: mb B I16..4: 0.0% 0.4% 0.1% B16..8: 36.3% 12.1% 4.0% direct: 5.4% skip:41.7% L0:43.6% L1:42.4% BI:13.9%
    x264 [info]: 8x8 transform intra:79.9% inter:55.1%
    x264 [info]: direct mvs spatial:98.6% temporal:1.4%
    x264 [info]: coded y,uvDC,uvAC intra: 87.4% 84.3% 72.2% inter: 25.3% 23.9% 13.1%
    x264 [info]: i16 v,h,dc,p: 55% 15% 8% 22%
    x264 [info]: i8 v,h,dc,ddl,ddr,vr,hd,vl,hu: 12% 10% 10% 9% 12% 12% 12% 11% 12%
    x264 [info]: i4 v,h,dc,ddl,ddr,vr,hd,vl,hu: 11% 8% 5% 9% 16% 15% 13% 11% 12%
    x264 [info]: i8c dc,h,v,p: 52% 18% 16% 14%
    x264 [info]: Weighted P-Frames: Y:97.5% UV:0.9%
    x264 [info]: ref P L0: 45.5% 11.4% 17.3% 6.4% 5.6% 3.5% 3.5% 1.8% 1.9% 1.4% 1.6% 0.2% 0.0%
    x264 [info]: ref B L0: 70.3% 12.6% 5.9% 3.5% 2.4% 1.9% 1.5% 1.1% 0.6% 0.3%
    x264 [info]: ref B L1: 92.7% 7.3%
    x264 [info]: kb/s:2581.08

    Скриншоты

    с названием

    Скачать .torrent

    Скачать торрент-файл бесплатно и на максимальной скорости!

    Как скачивать? · Что такое торрент? · Рейтинг и ограничения

    !ВНИМАНИЕ!
    Сайт не распространяет и не хранит электронные версии произведений, а занимается лишь лишь предоставлением доступа к создаваемому пользователями каталогу ссылок на торрент-файлы, которые содержат только списки хеш-сумм, убедительная просьба с жалобами обращаться напрямую к пользователю. Файлы для обмена на трекере предоставлены пользователями сайта, и администрация не несёт ответственности за их содержание. Просьба не заливать файлы, защищенные авторскими правами, а также файлы нелегального содержания!


    _________________
    [Профиль] [ЛС]
    Показать сообщения:    
    Ответить на тему

    Текущее время: Сегодня, в 20:33

    Часовой пояс: GMT + 2



    Вы не можете начинать темы
    Вы не можете отвечать на сообщения
    Вы не можете редактировать свои сообщения
    Вы не можете удалять свои сообщения
    Вы не можете голосовать в опросах
    Вы не можете прикреплять файлы к сообщениям
    Вы не можете скачивать файлы