Register  ·  Log in
Forgot password?

  • Заклятие / The Conjuring (Джеймс Ван / James Wan) [2013, США, Ужасы, триллер, BDRip] Dub

    Reply to topic
    Author Message


    Post 28-Mar-2016 05:29



    Заклятие / The Conjuring-Год выхода: 2013
    Выпущено: США / Evergreen Media, New Line Cinema, Safran Company, The
    Жанр: ужасы, триллер
    Продолжительность: 01:51:58
    Перевод: Профессиональный (полное дублирование) BD CEE |Лицензия|
    Субтитры: нет-Режиссер:
    Джеймс Ван / James Wan-В ролях:
    Вера Фармига (Lorraine Warren), Патрик Уилсон (Ed Warren), Рон Ливингстон (Roger Perron), Лили Тейлор (Carolyn Perron), Шэнли Касвелл (Andrea), Хейли МакФарланд (Nancy), Джои Кинг (Christine), Маккензи Фой (Cindy), Кайла Дивер (April), Шэннон Кук-Чун (Drew), Джон Бразертон (Brad)-Описание:
    В основе картины лежит реальная история семьи Перрон, которые утверждали, что жили в окружении привидений, как добрых, так и злых. Духи населяли дом на Род-Айленде, в котором Перроны проживали в семидесятых годах XX века.-Релиз групп
    | | IMDB | КиноПоиск | Сэмпл |-Тип релиза: BDRip [The.Conjuring.2013.1080p.BluRay.AVC.DTS-HD.MA.5.1-PublicHD]
    Контейнер: AVI
    Видео: 720x304 (2.37:1), 23.976 fps, XviD build 73 ~1474 kbps avg, 0.28 bit/pixel
    Аудио: 48 kHz, AC3 Dolby Digital, 3/2 (L,C,R,l,r) + LFE ch, ~384 kbps avg-




    Complete name                            : D:\Zaklyatie_2013_BDRip_by_Dalemake.avi
    Format                                   : AVI
    Format/Info                              : Audio Video Interleave
    File size                                : 1.46 GiB
    Duration                                 : 1h 51mn
    Overall bit rate                         : 1 868 Kbps
    Writing application                      : VirtualDubMod | || (build 2550/release)
    Writing library                          : VirtualDubMod build 2550/release
    ID                                       : 0
    Format                                   : MPEG-4 Visual
    Format profile                           : Advanced Simple@L5
    Format settings, BVOP                    : 1
    Format settings, QPel                    : No
    Format settings, GMC                     : No warppoints
    Format settings, Matrix                  : Custom
    Codec ID                                 : XVID
    Codec ID/Hint                            : XviD
    Duration                                 : 1h 51mn
    Bit rate                                 : 1 474 Kbps
    Width                                    : 720 pixels
    Height                                   : 304 pixels
    Display aspect ratio                     : 2.35:1
    Frame rate                               : 23.976 (23976/1000) fps
    Color space                              : YUV
    Chroma subsampling                       : 4:2:0
    Bit depth                                : 8 bits
    Scan type                                : Progressive
    Compression mode                         : Lossy
    Bits/(Pixel*Frame)                       : 0.281
    Stream size                              : 1.15 GiB (79%)
    Writing library                          : XviD 73
    ID                                       : 1
    Format                                   : AC-3
    Format/Info                              : Audio Coding 3
    Mode extension                           : CM (complete main)
    Format settings, Endianness              : Big
    Codec ID                                 : 2000
    Duration                                 : 1h 51mn
    Bit rate mode                            : Constant
    Bit rate                                 : 384 Kbps
    Channel(s)                               : 6 channels
    Channel positions                        : Front: L C R, Side: L R, LFE
    Sampling rate                            : 48.0 KHz
    Frame rate                               : 31.250 fps (1536 spf)
    Compression mode                         : Lossy
    Stream size                              : 308 MiB (21%)
    Alignment                                : Split accross interleaves
    Interleave, duration                     : 42 ms (1.00 video frame)
    Interleave, preload duration             : 500 ms
    Download .torrent

    Download free and at maximum speed!

    How to Download? · What is a torrent? · Ratings and Limitations

    The site does not extend and does not store electronic(digital) versions of products, and only gives access to a reference catalogue created by users on torrent-files which contain only lists of the hash-sums, the earnest entreaty, with complaints(abuse) to access directly to the user. Files for an exchange on tracker are given by users of a site, and the administration does not bear the responsibility for their maintenance. The request to not fill in the files protected by copyrights, and also files of the illegal maintenance!

    [Profile] [PM]
    Display posts from previous:    
    Reply to topic

    The time now is: Today 10:40

    All times are GMT + 3 Hours

    You cannot post new topics in this forum
    You cannot reply to topics in this forum
    You cannot edit your posts in this forum
    You cannot delete your posts in this forum
    You cannot vote in polls in this forum
    You cannot attach files in this forum
    You cannot download files in this forum