BitTorrentTracker PerecTracker.org
BitTorrentTracker PerecTracker.org
    
Регистрация  ·  Вход
 
 · 
Забыли пароль?

  • (Ambient, Experimental) [CD] Various - Airport Symphony (Richard Chartier, Francisco López, Taylor Deupree, Tim Hecker, Stephan Mathieu, Fennesz, Christopher Willits) - 2007, FLAC (tracks+.cue), lossless

    Ответить на тему
     
    Автор Сообщение

    Columb

    Создавать темы 18-Янв-2014 15:41

           

    [Цитировать]

    Various / Airport Symphony
    -Жанр: Ambient, Experimental, Field Recording
    Страна-производитель диска: Australia
    Год издания: 2007
    Издатель (лейбл): Room40
    Номер по каталогу: EDRM417
    Аудиокодек: FLAC (*.flac)
    Тип рипа: tracks+.cue
    Битрейт аудио: lossless
    Продолжительность: 02:23:31
    Источник (релизер): what.cd (err0r)
    Наличие сканов в содержимом раздачи: нет-01. David Grubbs - The Chimney Swifts (06:15)
    02. Richard Chartier - Retrieval Path (11:26)
    03. Francisco López - Untitled #203 (12:50)
    04. Camilla Hannan - Double Glazed (04:53)
    05. Taylor Deupree - Fear Of Flying (06:12)
    06. Christophe Charles - Airport Symphony: A Brief Life (09:37)
    07. Dale Lloyd - Airs For Beacons / Signals For Ports (05:21)
    08. Marc Behrens - 3 Winged Zones (10:17)
    09. Toshiya Tsunoda - Peak To Peak (05:00)
    01. Tim Hecker - Blue Ember Breeze (06:03)
    02. Stephan Mathieu - Lux-Scn (23:45)
    03. Fennesz - Verona (04:43)
    04. Burkhard Beins - Tarmac Berlin Edit (08:40)
    05. Jason Kahn - Transit (03:30)
    06. Ulrich Krieger - Noise-Pollination (08:20)
    07. Keiichi Sugimoto - Tum (04:18)
    08. Christopher Willits - Plane (06:40)
    09. Joel Stern - Terminal Dreamer (05:37)-

    Лог создания рипа

    CD 1

    Exact Audio Copy V0.99 prebeta 4 from 23. January 2008
    EAC extraction logfile from 12. September 2008, 12:30
    Various Artists / Airport Symphony (Disc 1)
    Used drive : PIONEER DVD-RW DVR-111D Adapter: 0 ID: 0
    Read mode : SecureUtilize accurate stream : YesDefeat audio cache : YesMake use of C2 pointers : No
    Read offset correction : 48Overread into Lead-In and Lead-Out : NoFill up missing offset samples with silence : YesDelete leading and trailing silent blocks : NoNull samples used in CRC calculations : YesUsed interface : Native Win32 interface for Win NT & 2000Gap handling : Appended to previous track
    Used output format : User Defined EncoderSelected bitrate : 768 kBit/sQuality : HighAdd ID3 tag : NoCommand line compressor : D:\Program Files\Exact Audio Copy\FLAC\FLAC.EXEAdditional command line options : -V -8 -T "artist=%a" -T "title=%t" -T "album=%g" -T "date=%y" -T "tracknumber=%n" -T "genre=%m" %s
    TOC of the extracted CD
    Track | Start | Length | Start sector | End sector --------------------------------------------------------- 1 | 0:00.00 | 6:15.21 | 0 | 28145 2 | 6:15.21 | 11:26.02 | 28146 | 79597 3 | 17:41.23 | 12:50.48 | 79598 | 137395 4 | 30:31.71 | 4:53.38 | 137396 | 159408 5 | 35:25.34 | 6:12.06 | 159409 | 187314 6 | 41:37.40 | 9:37.73 | 187315 | 230662 7 | 51:15.38 | 5:21.62 | 230663 | 254799 8 | 56:37.25 | 10:17.01 | 254800 | 301075 9 | 66:54.26 | 5:00.02 | 301076 | 323577
    Track 1
    Filename C:\Ripped CDs\Various Artists\Airport Symphony (Disc 1)\(01) David Grubbs - The Chimney Swifts.wav
    Pre-gap length 0:00:02.00
    Peak level 84.2 % Track quality 100.0 % Test CRC 965BCAD4 Copy CRC 965BCAD4 Track not present in AccurateRip database Copy OK
    Track 2
    Filename C:\Ripped CDs\Various Artists\Airport Symphony (Disc 1)\(02) Richard Chartier - Retrieval_Path.wav
    Peak level 42.1 % Track quality 99.9 % Test CRC 6BAB5526 Copy CRC 6BAB5526 Track not present in AccurateRip database Copy OK
    Track 3
    Filename C:\Ripped CDs\Various Artists\Airport Symphony (Disc 1)\(03) Francisco Lopez - Untitled #203.wav
    Peak level 100.0 % Track quality 100.0 % Test CRC 582B2ABB Copy CRC 582B2ABB Track not present in AccurateRip database Copy OK
    Track 4
    Filename C:\Ripped CDs\Various Artists\Airport Symphony (Disc 1)\(04) Camilla Hannan - Double Glazed.wav
    Peak level 100.0 % Track quality 99.9 % Test CRC 4352B675 Copy CRC 4352B675 Track not present in AccurateRip database Copy OK
    Track 5
    Filename C:\Ripped CDs\Various Artists\Airport Symphony (Disc 1)\(05) Taylor Deupree - Fear Of Flying.wav
    Peak level 31.6 % Track quality 100.0 % Test CRC 3DD2775B Copy CRC 3DD2775B Track not present in AccurateRip database Copy OK
    Track 6
    Filename C:\Ripped CDs\Various Artists\Airport Symphony (Disc 1)\(06) Christophe Charles - Airport Symphony A Brief Life.wav
    Peak level 35.0 % Track quality 100.0 % Test CRC BDEDD99D Copy CRC BDEDD99D Track not present in AccurateRip database Copy OK
    Track 7
    Filename C:\Ripped CDs\Various Artists\Airport Symphony (Disc 1)\(07) Dale Lloyd - Airs For Beacons-Signals For Ports.wav
    Peak level 98.1 % Track quality 100.0 % Test CRC 196EC153 Copy CRC 196EC153 Track not present in AccurateRip database Copy OK
    Track 8
    Filename C:\Ripped CDs\Various Artists\Airport Symphony (Disc 1)\(08) Marc Behrens - 3 Winged Zones.wav
    Peak level 100.0 % Track quality 100.0 % Test CRC 7D5DB113 Copy CRC 7D5DB113 Track not present in AccurateRip database Copy OK
    Track 9
    Filename C:\Ripped CDs\Various Artists\Airport Symphony (Disc 1)\(09) Toshiya Tsunoda - Peak To Peak.wav
    Peak level 100.0 % Track quality 100.0 % Test CRC BBBDEAD6 Copy CRC BBBDEAD6 Track not present in AccurateRip database Copy OK
    None of the tracks are present in the AccurateRip database
    No errors occurred
    End of status report

    CD 2

    Exact Audio Copy V0.99 prebeta 4 from 23. January 2008
    EAC extraction logfile from 12. September 2008, 13:27
    Various Artists / Airport Symphony (Disc 2)
    Used drive : PIONEER DVD-RW DVR-111D Adapter: 0 ID: 0
    Read mode : SecureUtilize accurate stream : YesDefeat audio cache : YesMake use of C2 pointers : No
    Read offset correction : 48Overread into Lead-In and Lead-Out : NoFill up missing offset samples with silence : YesDelete leading and trailing silent blocks : NoNull samples used in CRC calculations : YesUsed interface : Native Win32 interface for Win NT & 2000Gap handling : Appended to previous track
    Used output format : User Defined EncoderSelected bitrate : 768 kBit/sQuality : HighAdd ID3 tag : NoCommand line compressor : D:\Program Files\Exact Audio Copy\FLAC\FLAC.EXEAdditional command line options : -V -8 -T "artist=%a" -T "title=%t" -T "album=%g" -T "date=%y" -T "tracknumber=%n" -T "genre=%m" %s
    TOC of the extracted CD
    Track | Start | Length | Start sector | End sector --------------------------------------------------------- 1 | 0:00.00 | 6:03.28 | 0 | 27252 2 | 6:03.28 | 23:45.00 | 27253 | 134127 3 | 29:48.28 | 4:43.09 | 134128 | 155361 4 | 34:31.37 | 8:40.31 | 155362 | 194392 5 | 43:11.68 | 3:30.51 | 194393 | 210193 6 | 46:42.44 | 8:20.29 | 210194 | 247722 7 | 55:02.73 | 4:18.00 | 247723 | 267072 8 | 59:20.73 | 6:40.00 | 267073 | 297072 9 | 66:00.73 | 5:37.10 | 297073 | 322357
    Track 1
    Filename C:\Ripped CDs\Various Artists\Airport Symphony (Disc 2)\(01) Tim Hecker - Blue Ember Breeze.wav
    Pre-gap length 0:00:02.00
    Peak level 97.7 % Track quality 100.0 % Test CRC DE08D01B Copy CRC DE08D01B Track not present in AccurateRip database Copy OK
    Track 2
    Filename C:\Ripped CDs\Various Artists\Airport Symphony (Disc 2)\(02) Stephan Mathieu - Lux-Scn.wav
    Peak level 99.9 % Track quality 100.0 % Test CRC 50887377 Copy CRC 50887377 Track not present in AccurateRip database Copy OK
    Track 3
    Filename C:\Ripped CDs\Various Artists\Airport Symphony (Disc 2)\(03) Fennesz - Verona.wav
    Peak level 64.2 % Track quality 100.0 % Test CRC D3D98FF3 Copy CRC D3D98FF3 Track not present in AccurateRip database Copy OK
    Track 4
    Filename C:\Ripped CDs\Various Artists\Airport Symphony (Disc 2)\(04) Burkhard Beins - Tarmac Berlin Edit.wav
    Peak level 100.0 % Track quality 100.0 % Test CRC DE1F0289 Copy CRC DE1F0289 Track not present in AccurateRip database Copy OK
    Track 5
    Filename C:\Ripped CDs\Various Artists\Airport Symphony (Disc 2)\(05) Jason Kahn - Transit.wav
    Peak level 99.9 % Track quality 100.0 % Test CRC 16376303 Copy CRC 16376303 Track not present in AccurateRip database Copy OK
    Track 6
    Filename C:\Ripped CDs\Various Artists\Airport Symphony (Disc 2)\(06) Ulrich Krieger - Noise-Pollination.wav
    Peak level 81.2 % Track quality 100.0 % Test CRC E160D641 Copy CRC E160D641 Track not present in AccurateRip database Copy OK
    Track 7
    Filename C:\Ripped CDs\Various Artists\Airport Symphony (Disc 2)\(07) Keiichi Sugimoto - Tum.wav
    Peak level 100.0 % Track quality 99.9 % Test CRC DE7A1168 Copy CRC DE7A1168 Track not present in AccurateRip database Copy OK
    Track 8
    Filename C:\Ripped CDs\Various Artists\Airport Symphony (Disc 2)\(08) Christopher Willits - Plane.wav
    Peak level 97.7 % Track quality 100.0 % Test CRC 6CFCEC89 Copy CRC 6CFCEC89 Track not present in AccurateRip database Copy OK
    Track 9
    Filename C:\Ripped CDs\Various Artists\Airport Symphony (Disc 2)\(09) Joel Stern - Terminal Dreaming.wav
    Peak level 99.9 % Track quality 100.0 % Test CRC F9101318 Copy CRC F9101318 Track not present in AccurateRip database Copy OK
    None of the tracks are present in the AccurateRip database
    No errors occurred
    End of status report

    Содержание индексной карты (.CUE)

    CD 1

    REM DATE 2007REM DISCID 8410DA09REM COMMENT "ExactAudioCopy v0.99pb4"PERFORMER "Various Artists"TITLE "Airport Symphony (Disc 1)"FILE "(01) David Grubbs - The Chimney Swifts.wav" WAVE TRACK 01 AUDIO TITLE "The Chimney Swifts" PERFORMER "David Grubbs" INDEX 01 00:00:00FILE "(02) Richard Chartier - Retrieval_Path.wav" WAVE TRACK 02 AUDIO TITLE "Retrieval_Path" PERFORMER "Richard Chartier" INDEX 01 00:00:00FILE "(03) Francisco Lopez - Untitled #203.wav" WAVE TRACK 03 AUDIO TITLE "Untitled #203" PERFORMER "Francisco Lopez" INDEX 01 00:00:00FILE "(04) Camilla Hannan - Double Glazed.wav" WAVE TRACK 04 AUDIO TITLE "Double Glazed" PERFORMER "Camilla Hannan" INDEX 01 00:00:00FILE "(05) Taylor Deupree - Fear Of Flying.wav" WAVE TRACK 05 AUDIO TITLE "Fear Of Flying" PERFORMER "Taylor Deupree" INDEX 01 00:00:00FILE "(06) Christophe Charles - Airport Symphony A Brief Life.wav" WAVE TRACK 06 AUDIO TITLE "Airport Symphony A Brief Life" PERFORMER "Christophe Charles" INDEX 01 00:00:00FILE "(07) Dale Lloyd - Airs For Beacons-Signals For Ports.wav" WAVE TRACK 07 AUDIO TITLE "Airs For Beacons\Signals For Ports" PERFORMER "Dale Lloyd" INDEX 01 00:00:00FILE "(08) Marc Behrens - 3 Winged Zones.wav" WAVE TRACK 08 AUDIO TITLE "3 Winged Zones" PERFORMER "Marc Behrens" INDEX 01 00:00:00FILE "(09) Toshiya Tsunoda - Peak To Peak.wav" WAVE TRACK 09 AUDIO TITLE "Peak To Peak" PERFORMER "Toshiya Tsunoda" INDEX 01 00:00:00

    CD 2

    REM DATE 2007REM DISCID 7C10CA09REM COMMENT "ExactAudioCopy v0.99pb4"PERFORMER "Various Artists"TITLE "Airport Symphony (Disc 2)"FILE "(01) Tim Hecker - Blue Ember Breeze.wav" WAVE TRACK 01 AUDIO TITLE "Blue Ember Breeze" PERFORMER "Tim Hecker" INDEX 01 00:00:00FILE "(02) Stephan Mathieu - Lux-Scn.wav" WAVE TRACK 02 AUDIO TITLE "Lux-Scn" PERFORMER "Stephan Mathieu" INDEX 01 00:00:00FILE "(03) Fennesz - Verona.wav" WAVE TRACK 03 AUDIO TITLE "Verona" PERFORMER "Fennesz" INDEX 01 00:00:00FILE "(04) Burkhard Beins - Tarmac Berlin Edit.wav" WAVE TRACK 04 AUDIO TITLE "Tarmac Berlin Edit" PERFORMER "Burkhard Beins" INDEX 01 00:00:00FILE "(05) Jason Kahn - Transit.wav" WAVE TRACK 05 AUDIO TITLE "Transit" PERFORMER "Jason Kahn" INDEX 01 00:00:00FILE "(06) Ulrich Krieger - Noise-Pollination.wav" WAVE TRACK 06 AUDIO TITLE "Noise-Pollination" PERFORMER "Ulrich Krieger" INDEX 01 00:00:00FILE "(07) Keiichi Sugimoto - Tum.wav" WAVE TRACK 07 AUDIO TITLE "Tum" PERFORMER "Keiichi Sugimoto" INDEX 01 00:00:00FILE "(08) Christopher Willits - Plane.wav" WAVE TRACK 08 AUDIO TITLE "Plane" PERFORMER "Christopher Willits" INDEX 01 00:00:00FILE "(09) Joel Stern - Terminal Dreaming.wav" WAVE TRACK 09 AUDIO TITLE "Terminal Dreaming" PERFORMER "Joel Stern" INDEX 01 00:00:00
    Richard Chartier - Retrieval Path
    Dale Lloyd - Airs For Beacons / Signals For Ports
    Stephan Mathieu - Lux-Scn
    Скачать .torrent

    Скачать торрент-файл бесплатно и на максимальной скорости!

    Как скачивать? · Что такое торрент? · Рейтинг и ограничения

    !ВНИМАНИЕ!
    Сайт не распространяет и не хранит электронные версии произведений, а занимается лишь лишь предоставлением доступа к создаваемому пользователями каталогу ссылок на торрент-файлы, которые содержат только списки хеш-сумм, убедительная просьба с жалобами обращаться напрямую к пользователю. Файлы для обмена на трекере предоставлены пользователями сайта, и администрация не несёт ответственности за их содержание. Просьба не заливать файлы, защищенные авторскими правами, а также файлы нелегального содержания!

    [Профиль] [ЛС]
    Показать сообщения:    
    Ответить на тему

    Текущее время: Сегодня, в 04:59

    Часовой пояс: GMT + 2



    Вы не можете начинать темы
    Вы не можете отвечать на сообщения
    Вы не можете редактировать свои сообщения
    Вы не можете удалять свои сообщения
    Вы не можете голосовать в опросах
    Вы не можете прикреплять файлы к сообщениям
    Вы не можете скачивать файлы