BitTorrentTracker PerecTracker.org
BitTorrentTracker PerecTracker.org
    
Регистрация  ·  Вход
 
 · 
Забыли пароль?

  • Выбивалы / Vybijena (Petr Nikolaev / Петр Николаев) [2015, Чехия, комедия, драма, DVDRip-AVC] VO (Kass)

    Ответить на тему
     
    Автор Сообщение

    Light

    Создавать темы 28-Мар-2016 00:23

           

    [Цитировать]

    Выбивалы / Vybijena
    Страна: Чехия
    Жанр: комедия, драма
    Год выпуска: 2015
    Продолжительность: 01:29:10
    Перевод: Одноголосый закадровый (женский) Kass
    Cубтитры: нет
    Оригинальная аудиодорожка: нет
    Режиссер: Petr Nikolaev / Петр Николаев
    В ролях: Ондрей Сокол / Ondrej Sokol, Михал Суханек / Michal Suchanek, Ричард Гензер / Richard Genzer, Симона Краинова / Simona Krainova, Симона Бабчакова / Simona Babcakova, Вацлав Матейовский / Vaclav Matejovsky, Якуб Буришек / Jakub Burysek, Михал Шашинка / Michal Sasinka, Линда Бартошова / Linda Bartosova, Йогана Вашкова / Johana Vaskova, Лукаш Вацулик / Lukas Vaculik, Моника Абсолонова / Monika Absolonova, Гинек Чермак / Hynek Cermak, Петра Шпиндлерова / Petra Spindlerova, Зузана Чапкова / Zuzana Capkova, Катерина Бурианова-Раймонтова / Katerina Burianova-Rajmontova, Томаш Гавлинек / Tomas Havlinek, Томаш Краус / Tomas Kraus, Мартин Загалка / Martin Zahalka, Роберта Працна / Roberta Pracna, Андреа Берецкова / Andrea Bereckova, Франтишка Брзобогата / Frantiska Brzobohata, Филип Брезина / Filip Brezina, Бригита Цмунтова / Brigita Cmuntova, Власта Чтвртничкова / Vlasta Ctvrtnickova, Наталие Драбишчакова / Natalie Drabiscakova, Филип Дворжак / Filip Dvorak, Элла Дворжакова / Ella Dvorakova, Данушка Градилакова / Danuska Hradilakova, Яакуб Гикеш / Jakub Hykes, Йогана Едличкова / Johana Jedlickova, Шарка Каванова / Sarka Kavanova, Томаш Кепка / Tomas Kepka, Флемминг Тейгард Лагесен / Flemming Teigaard Laugesen, Магдалена Мудра / Magdalena Moudra, Зденек Муха / Zdenek Mucha, Богдана Павликова / Bohdana Pavlikova, Мила Плецерова / Mila Plecerova, Игорь Раттай / Igor Rattaj, Люцие Стропницка / Lucie Stropnicka, Яахим Суханек / Jachym Suchanek, Гана Штандлерова / Hana Stadlerova, Аничка Штепанкова / Anicka Stepankova, Камил Швейда / Kamil Svejda, Ян Ваши / Jan Vasi, Барбора Вьюгова / Barbora Vieweghova, Иван Войтылова / Ivana Wojtylova
    Описание: Выбивалы. Жестокая игра, чем-то похожая на жизнь: кто не вписался, вылетает с треском. Но в отличие от игры, жизнь может навязать свои, неожиданные правила. Школьная красавица и школьная уродина, кто в конечном счете выиграл?
    Тема встречи выпускников через 25 лет не нова, но режиссер с ней справился отлично. История на тему «не родись красивой», плюс судьбы четырех мужчин, с первого взгляда влюбленных в красавицу.
    Тонкое и романтическое настроение в фильме перемежается с циничным, хорош диалог и голос за кадром.
    Доп. информация: Исходник - оригинальный чешский диск.
    Сэмпл: https://yadi.sk/i/jf_3uvW1qW4br
    Качество видео: DVDRip-AVC
    Формат видео: MKV
    Видео: MPEG-4 AVC, 720x304, 25,000 fps, 1810 kbps
    Аудио: Русский (Dolby AC3, 6 ch) 448 Кбит/сек, 48,0 КГц

    MediaInfo

    Unique ID : 178897239468699606632200650357450800312 (0x86965AE44D149EADFF07F1649888FCB8)
    Complete name : C:\Downloads\Vybijena.2015.DVDrip.RusVO\Vybijena.2015.DVDrip.RusVO.mkv
    Format : Matroska
    Format version : Version 2
    File size : 1.41 GiB
    Duration : 1h 29mn
    Overall bit rate : 2 261 Kbps
    Encoded date : UTC
    Writing application : HandBrake 0.10.2 2015060900
    Writing library : Lavf55.12.0
    Video
    ID : 1
    Format : AVC
    Format/Info : Advanced Video Codec
    Format profile : Main@L4
    Format settings, CABAC : Yes
    Format settings, ReFrames : 7 frames
    Codec ID : V_MPEG4/ISO/AVC
    Duration : 1h 29mn
    Bit rate : 1 810 Kbps
    Width : 720 pixels
    Height : 304 pixels
    Display aspect ratio : 2.35:1
    Frame rate mode : Constant
    Frame rate : 25.000 fps
    Color space : YUV
    Chroma subsampling : 4:2:0
    Bit depth : 8 bits
    Scan type : Progressive
    Bits/(Pixel*Frame) : 0.331
    Stream size : 1.10 GiB (78%)
    Writing library : x264 core 142 r2479 dd79a61
    Encoding settings : cabac=1 / ref=7 / deblock=1:-1:-1 / analyse=0x1:0x111 / me=umh / subme=9 / psy=1 / psy_rd=1.00:0.15 / mixed_ref=0 / me_range=24 / chroma_me=1 / trellis=0 / 8x8dct=0 / cqm=0 / deadzone=21,11 / fast_pskip=1 / chroma_qp_offset=-2 / threads=12 / lookahead_threads=1 / sliced_threads=0 / nr=0 / decimate=1 / interlaced=0 / bluray_compat=0 / constrained_intra=0 / bframes=16 / b_pyramid=2 / b_adapt=1 / b_bias=0 / direct=1 / weightb=1 / open_gop=0 / weightp=1 / keyint=250 / keyint_min=25 / scenecut=40 / intra_refresh=0 / rc_lookahead=10 / rc=2pass / mbtree=1 / bitrate=1810 / ratetol=1.0 / qcomp=0.60 / qpmin=0 / qpmax=69 / qpstep=4 / cplxblur=20.0 / qblur=0.5 / vbv_maxrate=20000 / vbv_bufsize=25000 / nal_hrd=none / filler=0 / ip_ratio=1.40 / aq=1:1.00
    Default : Yes
    Forced : No
    Color range : Limited
    Color primaries : BT.601 PAL
    Transfer characteristics : BT.709
    Matrix coefficients : BT.601
    Audio
    ID : 2
    Format : AC-3
    Format/Info : Audio Coding 3
    Mode extension : CM (complete main)
    Format settings, Endianness : Big
    Codec ID : A_AC3
    Duration : 1h 29mn
    Bit rate mode : Constant
    Bit rate : 448 Kbps
    Channel(s) : 6 channels
    Channel positions : Front: L C R, Side: L R, LFE
    Sampling rate : 48.0 KHz
    Compression mode : Lossy
    Stream size : 286 MiB (20%)
    Title : Surround
    Language : Russian
    Default : Yes
    Forced : No
    Menu
    00:00:00.000 : :Chapter 1
    00:08:38.480 : :Chapter 2
    00:16:02.160 : :Chapter 3
    00:25:33.880 : :Chapter 4
    00:30:07.680 : :Chapter 5
    00:38:57.880 : :Chapter 6
    00:46:52.200 : :Chapter 7
    00:52:59.800 : :Chapter 8
    01:02:43.440 : :Chapter 9
    01:09:49.840 : :Chapter 10
    01:18:07.160 : :Chapter 11
    01:24:30.520 : :Chapter 12

    Скриншот c названием фильма

    Скриншоты











    Скачать .torrent

    Скачать торрент-файл бесплатно и на максимальной скорости!

    Как скачивать? · Что такое торрент? · Рейтинг и ограничения

    !ВНИМАНИЕ!
    Сайт не распространяет и не хранит электронные версии произведений, а занимается лишь лишь предоставлением доступа к создаваемому пользователями каталогу ссылок на торрент-файлы, которые содержат только списки хеш-сумм, убедительная просьба с жалобами обращаться напрямую к пользователю. Файлы для обмена на трекере предоставлены пользователями сайта, и администрация не несёт ответственности за их содержание. Просьба не заливать файлы, защищенные авторскими правами, а также файлы нелегального содержания!


    _________________
    [Профиль] [ЛС]
    Показать сообщения:    
    Ответить на тему

    Текущее время: Сегодня, в 15:57

    Часовой пояс: GMT + 2



    Вы не можете начинать темы
    Вы не можете отвечать на сообщения
    Вы не можете редактировать свои сообщения
    Вы не можете удалять свои сообщения
    Вы не можете голосовать в опросах
    Вы не можете прикреплять файлы к сообщениям
    Вы не можете скачивать файлы