BitTorrentTracker PerecTracker.org
BitTorrentTracker PerecTracker.org
    
Регистрация  ·  Вход
 
 · 
Забыли пароль?

  • Заброшенный / Forsaken (Джон Кассар / Jon Cassar) [2015, Канада, Франция, США, Драма, вестерн, HDRip] MVO (FocusStudio)

    Ответить на тему
     
    Автор Сообщение

    Light

    Создавать темы 28-Мар-2016 00:23

           

    [Цитировать]

    Заброшенный / Forsaken--Страна: Канада, Франция, США
    Жанр: Драма, вестерн
    Продолжительность: 01:29:36
    Год выпуска: 2015
    -Перевод: Профессиональный (многоголосый, закадровый) | FocusStudio
    Субтитры: нет
    Режиссёр: Джон Кассар / Jon Cassar
    -В ролях:
    Кифер Сазерленд, Дональд Сазерленд, Деми Мур, Брайан Кокс, Майкл Уинкотт, Лэндон Либуарон, Шиван Уильямс, Джонни Рис, Аарон Пул, Али Уэбб, Уэсли Морган, Майкл Терриоль, Кристофер Розамунд
    -Описание:
    Наёмный убийца Джон Генри оставляет своё кровавое ремесло и возвращается в родной город, надеясь восстановить отношения с собственным отцом. Вместе с тем местная банда терроризирует город.
    -Сэмпл: https://www.sendspace.com/file/sxsmds-Качество: HDRip - Исходник - BDRip 720p
    Формат: AVI
    Видео: 688x288 (2.39:1), 23.976 fps, XviD build 50 ~1026 kbps avg, 0.22 bit/pixel
    Аудио: 48 kHz, MPEG Layer 3, 2 ch, ~128.00 kbps avg (За работу с аудиодорожкой огромное спасибо [url=profile.php?mode=viewprofile&u=16452429]JIuI3epIIyJIb[/url])
    -

    Отчёт MediaInfo

    General
    Complete name : C:\Users\Максим\Desktop\Zabroshennyi.2015.HDRip.polkera.avi
    Format : AVI
    Format/Info : Audio Video Interleave
    File size : 746 MiB
    Duration : 1h 29mn
    Overall bit rate : 1 164 Kbps
    Writing application : VirtualDubMod 1.5.10.2 (build 2540/release)
    Writing library : VirtualDubMod build 2540/release
    Video
    Format : MPEG-4 Visual
    Format profile : Streaming Video@L1
    Format settings, BVOP : Yes
    Format settings, QPel : No
    Format settings, GMC : No warppoints
    Format settings, Matrix : Custom
    Codec ID : XVID
    Codec ID/Hint : XviD
    Duration : 1h 29mn
    Bit rate : 1 027 Kbps
    Width : 688 pixels
    Height : 288 pixels
    Display aspect ratio : 2.35
    Frame rate : 23.976 fps
    Resolution : 24 bits
    Colorimetry : 4:2:0
    Scan type : Progressive
    Bits/(Pixel*Frame) : 0.216
    Stream size : 658 MiB (88%)
    Writing library : XviD 1.2.1 (UTC 2008-12-04)
    Audio
    Format : MPEG Audio
    Format version : Version 1
    Format profile : Layer 3
    Codec ID : 55
    Codec ID/Hint : MP3
    Duration : 1h 29mn
    Bit rate mode : Constant
    Bit rate : 128 Kbps
    Channel(s) : 2 channels
    Sampling rate : 48.0 KHz
    Resolution : 16 bits
    Stream size : 82.0 MiB (11%)
    Alignment : Aligned on interleaves
    Interleave, duration : 42 ms (1.00 video frame)
    Interleave, preload duration : 504 ms
    Writing library : LAMEUU”‘jT98Јb7m

    -

    Скриншоты

    Скачать .torrent

    Скачать торрент-файл бесплатно и на максимальной скорости!

    Как скачивать? · Что такое торрент? · Рейтинг и ограничения

    !ВНИМАНИЕ!
    Сайт не распространяет и не хранит электронные версии произведений, а занимается лишь лишь предоставлением доступа к создаваемому пользователями каталогу ссылок на торрент-файлы, которые содержат только списки хеш-сумм, убедительная просьба с жалобами обращаться напрямую к пользователю. Файлы для обмена на трекере предоставлены пользователями сайта, и администрация не несёт ответственности за их содержание. Просьба не заливать файлы, защищенные авторскими правами, а также файлы нелегального содержания!


    _________________
    [Профиль] [ЛС]
    Показать сообщения:    
    Ответить на тему

    Текущее время: Сегодня, в 04:19

    Часовой пояс: GMT + 2



    Вы не можете начинать темы
    Вы не можете отвечать на сообщения
    Вы не можете редактировать свои сообщения
    Вы не можете удалять свои сообщения
    Вы не можете голосовать в опросах
    Вы не можете прикреплять файлы к сообщениям
    Вы не можете скачивать файлы