Register  ·  Log in
Forgot password?

  • Заброшенный / Forsaken (Джон Кассар / Jon Cassar) [2015, Канада, Франция, США, Драма, вестерн, HDRip] MVO (FocusStudio)

    Reply to topic
    Author Message


    Post 28-Mar-2016 01:23



    Заброшенный / Forsaken--Страна: Канада, Франция, США
    Жанр: Драма, вестерн
    Продолжительность: 01:29:36
    Год выпуска: 2015
    -Перевод: Профессиональный (многоголосый, закадровый) | FocusStudio
    Субтитры: нет
    Режиссёр: Джон Кассар / Jon Cassar
    -В ролях:
    Кифер Сазерленд, Дональд Сазерленд, Деми Мур, Брайан Кокс, Майкл Уинкотт, Лэндон Либуарон, Шиван Уильямс, Джонни Рис, Аарон Пул, Али Уэбб, Уэсли Морган, Майкл Терриоль, Кристофер Розамунд
    Наёмный убийца Джон Генри оставляет своё кровавое ремесло и возвращается в родной город, надеясь восстановить отношения с собственным отцом. Вместе с тем местная банда терроризирует город.
    -Сэмпл:Качество: HDRip - Исходник - BDRip 720p
    Формат: AVI
    Видео: 688x288 (2.39:1), 23.976 fps, XviD build 50 ~1026 kbps avg, 0.22 bit/pixel
    Аудио: 48 kHz, MPEG Layer 3, 2 ch, ~128.00 kbps avg (За работу с аудиодорожкой огромное спасибо [url=profile.php?mode=viewprofile&u=16452429]JIuI3epIIyJIb[/url])

    Отчёт MediaInfo

    Complete name : C:\Users\Максим\Desktop\Zabroshennyi.2015.HDRip.polkera.avi
    Format : AVI
    Format/Info : Audio Video Interleave
    File size : 746 MiB
    Duration : 1h 29mn
    Overall bit rate : 1 164 Kbps
    Writing application : VirtualDubMod (build 2540/release)
    Writing library : VirtualDubMod build 2540/release
    Format : MPEG-4 Visual
    Format profile : Streaming Video@L1
    Format settings, BVOP : Yes
    Format settings, QPel : No
    Format settings, GMC : No warppoints
    Format settings, Matrix : Custom
    Codec ID : XVID
    Codec ID/Hint : XviD
    Duration : 1h 29mn
    Bit rate : 1 027 Kbps
    Width : 688 pixels
    Height : 288 pixels
    Display aspect ratio : 2.35
    Frame rate : 23.976 fps
    Resolution : 24 bits
    Colorimetry : 4:2:0
    Scan type : Progressive
    Bits/(Pixel*Frame) : 0.216
    Stream size : 658 MiB (88%)
    Writing library : XviD 1.2.1 (UTC 2008-12-04)
    Format : MPEG Audio
    Format version : Version 1
    Format profile : Layer 3
    Codec ID : 55
    Codec ID/Hint : MP3
    Duration : 1h 29mn
    Bit rate mode : Constant
    Bit rate : 128 Kbps
    Channel(s) : 2 channels
    Sampling rate : 48.0 KHz
    Resolution : 16 bits
    Stream size : 82.0 MiB (11%)
    Alignment : Aligned on interleaves
    Interleave, duration : 42 ms (1.00 video frame)
    Interleave, preload duration : 504 ms
    Writing library : LAMEUU”‘jT98Јb7m



    Download .torrent

    Download free and at maximum speed!

    How to Download? · What is a torrent? · Ratings and Limitations

    The site does not extend and does not store electronic(digital) versions of products, and only gives access to a reference catalogue created by users on torrent-files which contain only lists of the hash-sums, the earnest entreaty, with complaints(abuse) to access directly to the user. Files for an exchange on tracker are given by users of a site, and the administration does not bear the responsibility for their maintenance. The request to not fill in the files protected by copyrights, and also files of the illegal maintenance!

    [Profile] [PM]
    Display posts from previous:    
    Reply to topic

    The time now is: Today 21:52

    All times are GMT + 3 Hours

    You cannot post new topics in this forum
    You cannot reply to topics in this forum
    You cannot edit your posts in this forum
    You cannot delete your posts in this forum
    You cannot vote in polls in this forum
    You cannot attach files in this forum
    You cannot download files in this forum