BitTorrentTracker PerecTracker.org
BitTorrentTracker PerecTracker.org
    
Регистрация  ·  Вход
 
 · 
Забыли пароль?

  • Бородач (2016) SATRip [H.264] (сезон 1, серии 1-14 из 14)

    Ответить на тему
     
    Автор Сообщение

    rechyn

    Создавать темы 27-Мар-2016 22:03

           

    [Цитировать]

    Бородач (сезон 1, серии 1-14 из 14) «Понять и простить»-Телекомпания: ТНТ
    Жанр: Комедия
    Режиссер: Заур Болотаев
    Актеры: Михаил Галустян, Демис Карибов, Евгений Казанцев, Мария Староторжская, Михаил Куряев, Александр Луканичев, Дмитрий Меденников, Ксения Бехтина, Анастасия Лучинина
    Описание:
    Обаятельный, но невезучий охранник Александр Родионович Бородач впутывается вместе со своими друзьями в невообразимые истории, пытается покорить сердце стриптизерши Ирины Скоробейниковой, но неминуемо оказывается в отделении полиции, где его с пристрастием допрашивает начальник в исполнении резидента Comedy Club Демиса Карибидиса.

    Дата премьеры в России: 15.01.2016
    Продолжительность: 00:22:00 серия
    Качество видео: SATRip
    Перевод: Не требуется (русский язык)
    Видео: AVC/H.264, 720x400 (16:9), 1709 Kbps
    Аудио: MP3, 2 ch, 128 Kbps

    Mediainfo:

    Общее
    Полное имя                               : E:\CINEMA\СЕРИАЛЫ\Borodach (2016) SATRip\Borodach (2016) SATRip\01.Seriya.Бородач-2016.mkv
    Формат                                   : AVI
    Формат/Информация                        : Audio Video Interleave
    Размер файла                             : 282 Мбайт
    Продолжительность                        : 21 м.
    Режим общего битрейта                    : Переменный
    Общий поток                              : 1850 Кбит/сек
    Программа кодирования                    : Lavf54.63.104
    Видео
    Идентификатор                            : 0
    Формат                                   : AVC
    Формат/Информация                        : Advanced Video Codec
    Профиль формата                          : Main@L3
    Параметр CABAC формата                   : Да
    Параметр ReFrames формата                : 1 кадр
    Параметр GOP формата                     : M=1, N=15
    Идентификатор кодека                     : H264
    Продолжительность                        : 21 м.
    Вид битрейта                             : Переменный
    Битрейт                                  : 1709 Кбит/сек
    Максимальный битрейт                     : 5100 Кбит/сек
    Ширина                                   : 720 пикселей
    Высота                                   : 400 пикселей
    Соотношение сторон                       : 16:9
    Частота кадров                           : 25,000 кадров/сек
    Цветовое пространство                    : YUV
    Субдискретизация насыщенности            : 4:2:0
    Битовая глубина                          : 8 бит
    Тип развёртки                            : Прогрессивная
    Бит/(Пиксели*Кадры)                      : 0.237
    Размер потока                            : 261 Мбайт (92%)
    Аудио
    Идентификатор                            : 1
    Формат                                   : MPEG Audio
    Версия формата                           : Version 1
    Профиль формата                          : Layer 3
    Режим                                    : Joint stereo
    Расширение режима                        : MS Stereo
    Идентификатор кодека                     : 55
    Идентификатор кодека/Подсказка           : MP3
    Продолжительность                        : 21 м.
    Вид битрейта                             : Постоянный
    Битрейт                                  : 128 Кбит/сек
    Каналы                                   : 2 канала
    Частота                                  : 48,0 КГц
    Метод сжатия                             : С потерями
    Размер потока                            : 19,5 Мбайт (7%)
    Выравнивание                             : Соединение по промежуткам
    Продолжительность промежутка             : 24  мс. (0,60 видеокадр)

    Скриншоты:
    Скачать .torrent

    Скачать торрент-файл бесплатно и на максимальной скорости!

    Как скачивать? · Что такое торрент? · Рейтинг и ограничения

    !ВНИМАНИЕ!
    Сайт не распространяет и не хранит электронные версии произведений, а занимается лишь лишь предоставлением доступа к создаваемому пользователями каталогу ссылок на торрент-файлы, которые содержат только списки хеш-сумм, убедительная просьба с жалобами обращаться напрямую к пользователю. Файлы для обмена на трекере предоставлены пользователями сайта, и администрация не несёт ответственности за их содержание. Просьба не заливать файлы, защищенные авторскими правами, а также файлы нелегального содержания!


    _________________
    [Профиль] [ЛС]
    Показать сообщения:    
    Ответить на тему

    Текущее время: Сегодня, в 10:13

    Часовой пояс: GMT + 2



    Вы не можете начинать темы
    Вы не можете отвечать на сообщения
    Вы не можете редактировать свои сообщения
    Вы не можете удалять свои сообщения
    Вы не можете голосовать в опросах
    Вы не можете прикреплять файлы к сообщениям
    Вы не можете скачивать файлы