BitTorrentTracker PerecTracker.org
BitTorrentTracker PerecTracker.org
    
Регистрация  ·  Вход
 
 · 
Забыли пароль?

  • Субординация / Эффект эха / Chain of Command / Echo Effect (Кевин Каррауэй / Kevin Carraway) [2015, США, Боевик, триллер, BDRip] DVO + Original (Eng)

    Ответить на тему
     
    Автор Сообщение

    Light

    Создавать темы 27-Мар-2016 20:18

           

    [Цитировать]

    Субординация / Эффект эха / Chain of Command / Echo Effect-Год выхода: 2015
    Выпущено: США / Lionsgate, Clear Lake Entertainment
    Жанр: боевик, триллер
    Продолжительность: 01:27:43
    Перевод: Любительский (двухголосый закадровый) Parovoz Production
    Субтитры: нет
    Оригинальная аудиодорожка: Английская-Режиссер:
    Кевин Каррауэй / Kevin Carraway-В ролях:
    Майкл Джей Уайт, Макс Райан, Стив Остин, Аллен Йэтс, Дэн Андерс, Эшли Барнетт, Мэттью Бентли, Бобби Барнс, Дэн Крафт, Майк Дэннис-О фильме:
    Обнаружив брата убитым, Вебстер ищет виновных, но натыкается на заговор, который уходит корнями в правительство США.-Релиз групп
    | | IMDB | КиноПоиск | Сэмпл |-Качество: BDRip [Chain.of.Command.2015.1080p.BluRay.REMUX.AVC.DTS-HD.MA.5.1-RARBG]
    Формат: AVI
    Видео: 704x400 (1.76:1), 23.976 fps, XviD build 67 ~1973 kbps avg, 0.29 bit/pixel
    Аудио #1: 48 kHz, AC3 Dolby Digital, 2/0 (L,R) ch, ~192 kbps avg (RUS)
    Аудио #2: 48 kHz, AC3 Dolby Digital, 2/0 (L,R) ch, ~192 kbps avg (ENG)-

    Скриншоты

    -

    MediaInfo

    General
    Complete name                            : D:\Subordinaciya_2015_BDRip_DVO_by_Dalemake.avi
    Format                                   : AVI
    Format/Info                              : Audio Video Interleave
    File size                                : 1.45 GiB
    Duration                                 : 1h 27mn
    Overall bit rate                         : 2 372 Kbps
    Writing application                      : VirtualDubMod 1.5.10.3 | www.virtualdub-fr.org || (build 2550/release)
    Writing library                          : VirtualDubMod build 2550/release
    Video
    ID                                       : 0
    Format                                   : MPEG-4 Visual
    Format profile                           : Advanced Simple@L5
    Format settings, BVOP                    : 1
    Format settings, QPel                    : No
    Format settings, GMC                     : No warppoints
    Format settings, Matrix                  : Custom
    Codec ID                                 : XVID
    Codec ID/Hint                            : XviD
    Duration                                 : 1h 27mn
    Bit rate                                 : 1 974 Kbps
    Width                                    : 704 pixels
    Height                                   : 400 pixels
    Display aspect ratio                     : 16:9
    Frame rate                               : 23.976 (23976/1000) fps
    Color space                              : YUV
    Chroma subsampling                       : 4:2:0
    Bit depth                                : 8 bits
    Scan type                                : Progressive
    Compression mode                         : Lossy
    Bits/(Pixel*Frame)                       : 0.292
    Stream size                              : 1.21 GiB (83%)
    Writing library                          : XviD 67
    Audio #1
    ID                                       : 1
    Format                                   : AC-3
    Format/Info                              : Audio Coding 3
    Mode extension                           : CM (complete main)
    Format settings, Endianness              : Big
    Codec ID                                 : 2000
    Duration                                 : 1h 27mn
    Bit rate mode                            : Constant
    Bit rate                                 : 192 Kbps
    Channel(s)                               : 2 channels
    Channel positions                        : Front: L R
    Sampling rate                            : 48.0 KHz
    Frame rate                               : 31.250 fps (1536 spf)
    Compression mode                         : Lossy
    Stream size                              : 120 MiB (8%)
    Alignment                                : Split accross interleaves
    Interleave, duration                     : 42 ms (1.00 video frame)
    Interleave, preload duration             : 500 ms
    Audio #2
    ID                                       : 2
    Format                                   : AC-3
    Format/Info                              : Audio Coding 3
    Mode extension                           : CM (complete main)
    Format settings, Endianness              : Big
    Codec ID                                 : 2000
    Duration                                 : 1h 27mn
    Bit rate mode                            : Constant
    Bit rate                                 : 192 Kbps
    Channel(s)                               : 2 channels
    Channel positions                        : Front: L R
    Sampling rate                            : 48.0 KHz
    Frame rate                               : 31.250 fps (1536 spf)
    Compression mode                         : Lossy
    Stream size                              : 120 MiB (8%)
    Alignment                                : Split accross interleaves
    Interleave, duration                     : 42 ms (1.00 video frame)
    Interleave, preload duration             : 500 ms
    -
    Скачать .torrent

    Скачать торрент-файл бесплатно и на максимальной скорости!

    Как скачивать? · Что такое торрент? · Рейтинг и ограничения

    !ВНИМАНИЕ!
    Сайт не распространяет и не хранит электронные версии произведений, а занимается лишь лишь предоставлением доступа к создаваемому пользователями каталогу ссылок на торрент-файлы, которые содержат только списки хеш-сумм, убедительная просьба с жалобами обращаться напрямую к пользователю. Файлы для обмена на трекере предоставлены пользователями сайта, и администрация не несёт ответственности за их содержание. Просьба не заливать файлы, защищенные авторскими правами, а также файлы нелегального содержания!


    _________________
    [Профиль] [ЛС]
    Показать сообщения:    
    Ответить на тему

    Текущее время: Сегодня, в 13:50

    Часовой пояс: GMT + 2



    Вы не можете начинать темы
    Вы не можете отвечать на сообщения
    Вы не можете редактировать свои сообщения
    Вы не можете удалять свои сообщения
    Вы не можете голосовать в опросах
    Вы не можете прикреплять файлы к сообщениям
    Вы не можете скачивать файлы