BitTorrentTracker PerecTracker.org
BitTorrentTracker PerecTracker.org
    
Регистрация  ·  Вход
 
 · 
Забыли пароль?

  • Конец прекрасной эпохи (Станислав Говорухин) [2015, драма, комедия, WEB-DLRip]

    Ответить на тему
     
    Автор Сообщение

    Flirldrerve

    Создавать темы 27-Мар-2016 16:13

           

    [Цитировать]

    Конец прекрасной эпохиЖанр: драма, комедия
    Год выпуска: 2015
    Продолжительность: 01:34:01
    Режиссёр: Станислав Говорухин
    В ролях: Иван Колесников, Сергей Гармаш, Светлана Ходченкова, Фёдор Добронравов, Борис Каморзин, Дмитрий Астрахан, Лембит Ульфсак, Александр Робак, Элина Пяхклимяги, Кярт Таммярв, Тыну Карк, Дмитрий Ендальцев, Владимир Довжик, Дмитрий Соломыкин, Кристо Вийдинг, Мария Павлова, Юлиан Макаров, Светлана Аманова, Марина Гайзидорская, Анастасия Евграфова, Сергей Епишев, Лаури Киик, Лидия Матасова, Маргус Табор, Владимир Юматов, Татьяна Ястребова
    Описание: Молодому журналисту и писателю Андрею Лентулову, известному прямотой своих взглядов, свободой мысли и дерзостью суждений, предлагают переехать из Питера в Таллин, чтобы работать в местной газете. Там Андрей с головой уходит в полный противоречий роман с редактором Мариной, бесконечные случайные связи, но, что самое главное - яростное сопротивление системе. Какой была борьба бунтаря, любимца женщин и «самого аморального сотрудника» против жесточайшей цензуры, слежки и ханжества, и кто в ней победил?
    Доп. информация:

    Рип: waarheid
    Сэмпл:

    Качество видео: WEB-DLRip
    Формат видео: AVI
    Видео: 624x336 (1.86:1), 25 fps, XviD build 73 ~973 kbps avg, 0.19 bit/pixel
    Аудио: 48 kHz, MPEG Layer 3, 2 ch, ~128.00 kbps avg

    MediaInfo

    Общее
    Полное имя : Конец прекрасной эпохи.2014_WEB-DLRip_by_waarheid.avi
    Формат : AVI
    Формат/Информация : Audio Video Interleave
    Размер файла : 747 Мбайт
    Продолжительность : 1 ч. 34 м.
    Общий поток : 1111 Кбит/сек
    Программа кодирования : VirtualDubMod 1.5.10.3 | www.virtualdub-fr.org || (build 2550/release)
    Видео
    Идентификатор : 0
    Формат : MPEG-4 Visual
    Профиль формата : Advanced Simple@L5
    Параметр BVOP формата : 1
    Параметр QPel формата : Нет
    Параметр GMC формата : Без точки перехода
    Параметр матрицы формата : Выборочная
    Идентификатор кодека : XVID
    Идентификатор кодека/Подсказка : XviD
    Продолжительность : 1 ч. 34 м.
    Битрейт : 973 Кбит/сек
    Ширина : 624 пикселя
    Высота : 336 пикселей
    Соотношение сторон : 1,85:1
    Частота кадров : 25,000 кадров/сек
    Цветовое пространство : YUV
    Субдискретизация насыщенности : 4:2:0
    Битовая глубина : 8 бит
    Тип развёртки : Прогрессивная
    Метод сжатия : С потерями
    Бит/(Пиксели*Кадры) : 0.186
    Размер потока : 655 Мбайт (88%)
    Библиотека кодирования : XviD 73
    Аудио
    Идентификатор : 1
    Формат : MPEG Audio
    Версия формата : Version 1
    Профиль формата : Layer 3
    Идентификатор кодека : 55
    Идентификатор кодека/Подсказка : MP3
    Продолжительность : 1 ч. 34 м.
    Вид битрейта : Постоянный
    Битрейт : 128 Кбит/сек
    Каналы : 2 канала
    Частота : 48,0 КГц
    Метод сжатия : С потерями
    Размер потока : 86,1 Мбайт (12%)
    Выравнивание : Соединение по промежуткам
    Продолжительность промежутка : 40 мс. (1,00 видеокадр)
    Время предзагрузки промежутка : 504 мс.
    Библиотека кодирования : LAME3.99r
    Настройки программы : -m s -V 4 -q 2 -lowpass 17 -b 128

    Скриншот c названием фильма

    Скриншоты

    Скачать .torrent

    Скачать торрент-файл бесплатно и на максимальной скорости!

    Как скачивать? · Что такое торрент? · Рейтинг и ограничения

    !ВНИМАНИЕ!
    Сайт не распространяет и не хранит электронные версии произведений, а занимается лишь лишь предоставлением доступа к создаваемому пользователями каталогу ссылок на торрент-файлы, которые содержат только списки хеш-сумм, убедительная просьба с жалобами обращаться напрямую к пользователю. Файлы для обмена на трекере предоставлены пользователями сайта, и администрация не несёт ответственности за их содержание. Просьба не заливать файлы, защищенные авторскими правами, а также файлы нелегального содержания!


    _________________
    [Профиль] [ЛС]
    Показать сообщения:    
    Ответить на тему

    Текущее время: Сегодня, в 02:41

    Часовой пояс: GMT + 2



    Вы не можете начинать темы
    Вы не можете отвечать на сообщения
    Вы не можете редактировать свои сообщения
    Вы не можете удалять свои сообщения
    Вы не можете голосовать в опросах
    Вы не можете прикреплять файлы к сообщениям
    Вы не можете скачивать файлы