BitTorrentTracker PerecTracker.org
BitTorrentTracker PerecTracker.org
    
Регистрация  ·  Вход
 
 · 
Забыли пароль?

  • Внутри Льюина Дэвиса / Inside Llewyn Davis (Джоэл Коэн, Итан Коэн / Joel Coen, Ethan Coen) [2013, США, Великобритания, Франция, драма, музыка, BDRip] AVO (Сербин)

    Ответить на тему
     
    Автор Сообщение

    Light

    Создавать темы 27-Мар-2016 16:13

           

    [Цитировать]

    Внутри Льюина ДэвисаInside Llewyn Davis-Год выпуска: 2013
    Страна: США, Великобритания, Франция
    Жанр: драма, музыка, комедия-Продолжительность: 01:45:33
    Перевод: Авторский (одноголосый закадровый) Ю. Сербин
    Режиссёры: Джоэл Коэн, Итан Коэн / Joel Coen, Ethan Coen
    В ролях: Оскар Айзек, Кери Маллиган, Итан Филлипс, Робин Бартлетт, Джон Гудман, Джастин Тимберлейк, Макс Казелла, Гаррет Хедлунд, Джерри Грэйсон, Ф. Мюррей Абрахам и др.-Описание: Богемные кварталы Манхэттена и клубы табачного дыма, пыльные дороги Америки и гигантские тиражи винила… Нью-Йорк. Конец 50-х. Льюин Дэвис, талантливый певец и гитарист из Квинса, с трудом перебивается между выступлениями в клубах Гринвич-Виллиджа, редкими записями на радио. Без дома и денег, запутавшись в любви, почти потеряв связь с семьей, он странствует по жизни в поисках себя. И не находит. Все, что у него есть — это музыка. Удастся ли разгадать тайны его музыки? Что там, внутри Льюина Дэвиса?- -Sample-Качество: BDRip (источник: / BD-Remux / 1080p)
    Формат: AVI
    Видео: XviD, 720x384 (1.85:1), 23.976 fps, ~1589 kbps
    Аудио: Russian 48.0 KHz, AС3 , 6 channels, 384 Kbps |Ю. Сербин|
    Субтитры: отсутствуют-

    MediaInfo

    General
    Complete name : F:\Inside.Llewyn.Davis.2013.BDRip.XviD.AC3.-whip93.avi
    Format : AVI
    Format/Info : Audio Video Interleave
    File size : 1.46 GiB
    Duration : 1h 45mn
    Overall bit rate : 1 979 Kbps
    Writing application : VirtualDubMod 1.5.10.3 | www.virtualdub-fr.org || (build 2550/release)
    Writing library : VirtualDubMod build 2550/release
    Copyright : whip93
    Video
    ID : 0
    Format : MPEG-4 Visual
    Format profile : Advanced Simple@L5
    Format settings, BVOP : 1
    Format settings, QPel : No
    Format settings, GMC : No warppoints
    Format settings, Matrix : Custom
    Codec ID : XVID
    Codec ID/Hint : XviD
    Duration : 1h 45mn
    Bit rate : 1 589 Kbps
    Width : 720 pixels
    Height : 384 pixels
    Display aspect ratio : 1.85:1
    Frame rate : 23.976 fps
    Color space : YUV
    Chroma subsampling : 4:2:0
    Bit depth : 8 bits
    Scan type : Progressive
    Compression mode : Lossy
    Bits/(Pixel*Frame) : 0.240
    Stream size : 1.17 GiB (80%)
    Writing library : XviD 73
    Audio
    ID : 1
    Format : AC-3
    Format/Info : Audio Coding 3
    Mode extension : CM (complete main)
    Format settings, Endianness : Big
    Codec ID : 2000
    Duration : 1h 44mn
    Bit rate mode : Constant
    Bit rate : 384 Kbps
    Channel(s) : 6 channels
    Channel positions : Front: L C R, Side: L R, LFE
    Sampling rate : 48.0 KHz
    Bit depth : 16 bits
    Compression mode : Lossy
    Stream size : 287 MiB (19%)
    Alignment : Split accross interleaves
    Interleave, duration : 42 ms (1.01 video frame)
    Interleave, preload duration : 500 ms

    Скриншоты

    -
    Скачать .torrent

    Скачать торрент-файл бесплатно и на максимальной скорости!

    Как скачивать? · Что такое торрент? · Рейтинг и ограничения

    !ВНИМАНИЕ!
    Сайт не распространяет и не хранит электронные версии произведений, а занимается лишь лишь предоставлением доступа к создаваемому пользователями каталогу ссылок на торрент-файлы, которые содержат только списки хеш-сумм, убедительная просьба с жалобами обращаться напрямую к пользователю. Файлы для обмена на трекере предоставлены пользователями сайта, и администрация не несёт ответственности за их содержание. Просьба не заливать файлы, защищенные авторскими правами, а также файлы нелегального содержания!


    _________________
    [Профиль] [ЛС]
    Показать сообщения:    
    Ответить на тему

    Текущее время: Сегодня, в 03:00

    Часовой пояс: GMT + 2



    Вы не можете начинать темы
    Вы не можете отвечать на сообщения
    Вы не можете редактировать свои сообщения
    Вы не можете удалять свои сообщения
    Вы не можете голосовать в опросах
    Вы не можете прикреплять файлы к сообщениям
    Вы не можете скачивать файлы