BitTorrentTracker PerecTracker.org
BitTorrentTracker PerecTracker.org
    
Регистрация  ·  Вход
 
 · 
Забыли пароль?

  • [ATV3] Вакантна жизнь шеф-повара (Рустам Ильясов) [2015, Россия, Драма, WEB-DL, HD (1080p)] Original

    Ответить на тему
     
    Автор Сообщение

    rechyn

    Создавать темы 27-Мар-2016 08:03

           

    [Цитировать]

    Вакантна жизнь шеф-повара
    -
    6.578 / 10
    -Год выпуска: 2015
    Страна: Россия
    Жанр: Драма
    Продолжительность: 01:24:49
    Перевод: Не требуется
    Оригинальная аудиодорожка: Есть
    Cубтитры: Нет
    Режиссёр: Рустам Ильясов
    Сценарий: Алексей Захаров, Рустам Ильясов
    Продюсер: Федор Попов, Владимир Малышев
    Оператор: Михаил Милашин
    Композитор: Артем Васильев
    Художник: Федор Савельев, Павел Романов
    В ролях: Пётр Фёдоров, Виктор Вержбицкий, Вильма Кутавичюте, Алексей Колубков, Софья Райзман, Виктор Проскурин, Дмитрий Калязин, Александр Обласов, Екатерина Молоховская, Надежда Жарычева
    Бюджет: $1 500 000
    Сборы в России: $36 197
    Премьера (РФ): 10 марта 2016, «Парадиз»
    Описание: Андрей и Лена — супружеская пара, они молоды и счастливы. Когда Лена уезжает на несколько дней, Андрей уходит в загул со своим лучшим другом. Переезжая из клуба в клуб, Андрей попадает в необычное место под названием «Фотоателье». Там ему предлагают принять участие в интригующей игре: побыть в роли другого человека, на несколько дней став шеф-поваром дорогого ресторана, у которого есть все: богатый дом, интересная работа и красивая жена. Теперь Андрею предстоит многое выяснить: кто такой шеф-повар, кем является он сам, и кому можно доверять в изменившемся мире.-Качество исходника: WEB-DL 1080p (BlueBird)
    Качество: WEB-DL
    Тип: HD (1080p)
    Контейнер: M4V
    Видео: H.264, 1920x806, 2.40:1, 4 448 Kbps, 24.000 fps
    Аудио 1: Русский/Оригинальная дорожка , AAC / 2.0 / 156 Kbps / 48.0 KHz
    Аудио 2: Русский/Оригинальная дорожка , AC-3 / 5.1 / 384 Kbps / 48.0 KHz
    -

    iTunes Meta Tags

    Sort Name: Вакантна жизнь шеф-повара
    XID: Apple:vendor_id:2015-765099
    contentID: 1087154877
    Copyright: © 2016 Paradise
    Screenwriters: Алексей Захаров, Рустам Ильясов
    Producers: Федор Попов, Владимир Малышев
    Director: Рустам Ильясов
    Cast: Пётр Фёдоров, Виктор Вержбицкий, Вильма Кутавичюте, Алексей Колубков, Софья Райзман, Виктор Проскурин, Дмитрий Калязин, Александр Обласов, Екатерина Молоховская, Надежда Жарычева
    Studio: ВГИК-Дебют
    Rating: 135
    Long Description: Андрей и Лена - супружеская пара, они молоды и счастливы. Когда Лена уезжает на несколько дней, Андрей уходит в загул со своим лучшим другом. Переезжая из клуба в клуб, Андрей попадает в необычное место под названием "Фотоателье". Там ему предлагают принять участие в интригующей игре: побыть в роли другого человека, на несколько дней став шеф-поваром дорогого ресторана, у которого есть все: богатый дом, интересная работа и красивая жена. Теперь Андрею предстоит многое выяснить: кто такой шеф-повар, кем является он сам, и кому можно доверять в изменившемся мире.
    Description: Андрей и Лена - супружеская пара, они молоды и счастливы. Когда Лена уезжает на несколько дней, Андрей уходит в загул со своим лучшим другом.
    Release Date: 2015-01-01T08:00:00Z
    Genre: Русское кино
    Artist: Рустам Ильясов
    Name: Вакантна жизнь шеф-повара

    MediaInfo

    General
    Complete name : /Users/imac/HandBrake/Povar.WEB-DL.1080p.m4v
    Format : MPEG-4
    Codec ID : M4V  (M4V /M4A /mp42/isom)
    File size : 2.96 GiB
    Duration : 1h 24mn
    Overall bit rate mode : Variable
    Overall bit rate : 4 996 Kbps
    Movie name : Вакантна жизнь шеф-повара
    Performer : Рустам Ильясов
    Director : Рустам Ильясов
    Actor : Пётр Фёдоров / Виктор Вержбицкий / Вильма Кутавичюте / Алексей Колубков / Софья Райзман / Виктор Проскурин / Дмитрий Калязин / Александр Обласов / Екатерина Молоховская / Надежда Жарычева
    Screenplay by : Алексей Захаров / Рустам Ильясов
    Producer : Федор Попов / Владимир Малышев
    Production studio : ВГИК-Дебют
    Genre : Русское кино
    ContentType : Short Film
    Description : Андрей и Лена - супружеская пара, они молоды и счастливы. Когда Лена уезжает на несколько дней, Андрей уходит в загул со своим лучшим другом.
    Recorded date : UTC 2015-01-01 08:00:00
    Encoded date : UTC 2016-03-26 22:00:05
    Tagged date : UTC 2016-03-26 22:01:25
    Copyright : © 2016 Paradise
    Cover : Yes
    Rating : None
    Title/Sort : Вакантна жизнь шеф-повара
    LongDescription : Андрей и Лена - супружеская пара, они молоды и счастливы. Когда Лена уезжает на несколько дней, Андрей уходит в загул со своим лучшим другом. Переезжая из клуба в клуб, Андрей попадает в необычное место под названием "Фотоателье". Там ему предлагают принять участие в интригующей игре: побыть в роли другого человека, на несколько дней став шеф-поваром дорогого ресторана, у которого есть все: богатый дом, интересная работа и красивая жена. Теперь Андрею предстоит многое выяснить: кто такой шеф-повар, кем является он сам, и кому можно доверять в изменившемся мире.
    AppleStoreCatalogID : 1087154877
    Vendor : Apple:vendor_id:2015-765099
    ContentRating : ru-movie|16+|375|
    Video #1
    ID : 1
    Format : AVC
    Format/Info : Advanced Video Codec
    Format profile : High@L4
    Format settings, CABAC : Yes
    Format settings, ReFrames : 5 frames
    Codec ID : avc1
    Codec ID/Info : Advanced Video Coding
    Duration : 1h 24mn
    Bit rate : 4 448 Kbps
    Width : 1 920 pixels
    Height : 806 pixels
    Display aspect ratio : 2.40:1
    Frame rate mode : Variable
    Frame rate : 24.000 fps
    Minimum frame rate : 23.810 fps
    Maximum frame rate : 24.390 fps
    Color space : YUV
    Chroma subsampling : 4:2:0
    Bit depth : 8 bits
    Scan type : Progressive
    Bits/(Pixel*Frame) : 0.120
    Stream size : 2.64 GiB (89%)
    Title : Main Program
    Language : Russian
    Encoded date : UTC 2016-03-26 22:00:05
    Tagged date : UTC 2016-03-26 22:00:10
    Color range : Limited
    Color primaries : BT.709
    Transfer characteristics : BT.709
    Matrix coefficients : BT.709
    Menus : 4,5
    Video #2
    ID : 5
    Format : JPEG
    Codec ID : jpeg
    Duration : 1h 24mn
    Bit rate mode : Variable
    Bit rate : 561 bps
    Width : 640 pixels
    Height : 268 pixels
    Display aspect ratio : 2.40:1
    Frame rate mode : Variable
    Frame rate : 0.003 fps
    Minimum frame rate : 0.002 fps
    Maximum frame rate : 0.004 fps
    Color space : YUV
    Chroma subsampling : 4:2:0
    Bit depth : 8 bits
    Compression mode : Lossy
    Bits/(Pixel*Frame) : 1.090
    Stream size : 319 KiB (0%)
    Title : Chapter Images
    Language : Russian
    Default : No
    Encoded date : UTC 2016-03-26 22:00:16
    Tagged date : UTC 2016-03-26 22:00:16
    Menu For : 1
    Audio #1
    ID : 2
    Format : AAC
    Format/Info : Advanced Audio Codec
    Format profile : LC
    Codec ID : 40
    Duration : 1h 24mn
    Bit rate mode : Variable
    Bit rate : 156 Kbps
    Maximum bit rate : 210 Kbps
    Channel(s) : 2 channels
    Channel positions : Front: L R
    Sampling rate : 48.0 KHz
    Frame rate : 46.875 fps (1024 spf)
    Compression mode : Lossy
    Stream size : 94.7 MiB (3%)
    Title : Russian Stereo
    Language : Russian
    Default : Yes
    Alternate group : 1
    Encoded date : UTC 2016-03-26 22:00:05
    Tagged date : UTC 2016-03-26 22:00:11
    Fallback From : 3
    Audio #2
    ID : 3
    Format : AC-3
    Format/Info : Audio Coding 3
    Mode extension : CM (complete main)
    Format settings, Endianness : Big
    Codec ID : ac-3
    Duration : 1h 24mn
    Bit rate mode : Constant
    Bit rate : 384 Kbps
    Channel(s) : 6 channels
    Channel positions : Front: L C R, Side: L R, LFE
    Sampling rate : 48.0 KHz
    Frame rate : 31.250 fps (1536 spf)
    Bit depth : 16 bits
    Compression mode : Lossy
    Stream size : 233 MiB (8%)
    Title : Russian DD 5.1
    Language : Russian
    Default : Inherited From: 2
    Alternate group : 1
    Encoded date : UTC 2016-03-26 22:00:05
    Tagged date : UTC 2016-03-26 22:00:10
    Fallback To : 2
    Menu #1
    00:00:00.000 : Глава 1
    00:06:43.791 : Глава 2
    00:13:37.582 : Глава 3
    00:22:38.957 : Глава 4
    00:26:40.290 : Глава 5
    00:32:17.206 : Глава 6
    00:37:38.456 : Глава 7
    00:43:04.456 : Глава 8
    00:48:55.497 : Глава 9
    00:52:56.913 : Глава 10
    01:00:02.579 : Глава 11
    01:06:31.120 : Глава 12
    01:11:11.745 : Глава 13
    01:17:51.203 : Глава 14
    Menu #2
    ID : 4
    Codec ID : text
    Duration : 1h 24mn
    Language : Russian
    Encoded date : UTC 2016-03-26 22:00:11
    Tagged date : UTC 2016-03-26 22:00:11
    Menu For : 1
    00:00:00.000 : Глава 1
    00:06:43.791 : Глава 2
    00:13:37.582 : Глава 3
    00:22:38.957 : Глава 4
    00:26:40.290 : Глава 5
    00:32:17.206 : Глава 6
    00:37:38.456 : Глава 7
    00:43:04.456 : Глава 8
    00:48:55.497 : Глава 9
    00:52:56.913 : Глава 10
    01:00:02.579 : Глава 11
    01:06:31.120 : Глава 12
    01:11:11.745 : Глава 13
    01:17:51.203 : Глава 14
    Bit rate mode : VBR

    Скриншоты

    -

    Релиз подготовлен для просмотра на Apple TV, iPad, iPhone, iPod Touch.
    Для просмотра данного релиза на компьютере с ОС Windows рекомендуется использовать VLC media player
    Скачать .torrent

    Скачать торрент-файл бесплатно и на максимальной скорости!

    Как скачивать? · Что такое торрент? · Рейтинг и ограничения

    !ВНИМАНИЕ!
    Сайт не распространяет и не хранит электронные версии произведений, а занимается лишь лишь предоставлением доступа к создаваемому пользователями каталогу ссылок на торрент-файлы, которые содержат только списки хеш-сумм, убедительная просьба с жалобами обращаться напрямую к пользователю. Файлы для обмена на трекере предоставлены пользователями сайта, и администрация не несёт ответственности за их содержание. Просьба не заливать файлы, защищенные авторскими правами, а также файлы нелегального содержания!


    _________________
    [Профиль] [ЛС]
    Показать сообщения:    
    Ответить на тему

    Текущее время: Сегодня, в 00:00

    Часовой пояс: GMT + 2



    Вы не можете начинать темы
    Вы не можете отвечать на сообщения
    Вы не можете редактировать свои сообщения
    Вы не можете удалять свои сообщения
    Вы не можете голосовать в опросах
    Вы не можете прикреплять файлы к сообщениям
    Вы не можете скачивать файлы