BitTorrentTracker PerecTracker.org
BitTorrentTracker PerecTracker.org
    
Регистрация  ·  Вход
 
 · 
Забыли пароль?

  • Вождь разнокожих (Егор Анашкин) [2012, Россия, Криминальная комедия, HDRip]

    Ответить на тему
     
    Автор Сообщение

    Flirldrerve

    Создавать темы 26-Мар-2016 20:14

           

    [Цитировать]

    Вождь разнокожих
    Страна: Россия
    Жанр: Криминальная комедия
    Год выпуска: 2012
    Продолжительность: 01:29:56
    Cубтитры: отсутствуют
    Режиссёр: Егор Анашкин
    Актёры: Никита Иванов, Дмитрий Дюжев, Григорий Сиятвинда, Мария Миронова, Семён Стругачёв, Виталий Гребенников, Маргарита Бычкова, Олег Дурыгин, Роман Хардиков, Павел Мисаилов, Александр Шаврин, Валентина Березуцкая, Владимир Епископосян, Эдуард Арушанян, Александр Числов, и др.
    Аннотация: Создатели фильма достаточно вольно трактуют новеллу О`Генри "Вождь краснокожих". История малолетнего хулигана была перенесена в форме кинематографической карикатуры в современные реалии российской действительности. Этот фильм не только о разрушительной силе детских шалостей, но также и о природе их происхождения. Этот фильм не простая развлекательная цветная картинка на белой тряпке экрана - в нём создатели затрагивают непреодолимые трудности отношений современных детей и взрослых. Это история большого современного огромного города, где почти каждый глубоко одинок, глубоко одинок в толпе, в толпе таких же одиноких как и он сам. Это история вечно занятых родителей, у которых дети предоставлены сами себе, и лишены полноценного общения как с родителями, так и с ровесниками, лишены почти полностью...

    Качество видео: HDRip
    Формат видео: AVI
    Видео: XviD 65 MPEG-4, 688x368 (1.85:1) 25.000 fps, ~947 kbps avg, 0.150 bit/pixel
    Аудио: MP-3 Joint stereo, CBR 160 kbps 2 ch, 48.0 KHz

    MediaInfo

    ОбщееПолное имя : P:\Вождь_разнокожих_2012_HDRip_[perectracker.org].aviФормат : AVIФормат/Информация : Audio Video InterleaveРазмер файла : 718 МбайтПродолжительность : 1 ч. 29 м.Общий поток : 1117 Кбит/секНазвание фильма : Вождь_разнокожих_2012_HDRip_[perectracker.org]Жанр : Comedy/Crime/FamilyПрограмма кодирования : VirtualDubModRus 1.5.10.2 (build 2542/release)Формат оригинала/Имя : Наше киноПримечание : 25 марта 2016 г.
    ВидеоИдентификатор : 0Формат : MPEG-4 VisualПрофиль формата : Advanced Simple@L5Параметр BVOP формата : 1Параметр QPel формата : НетПараметр GMC формата : Без точки переходаПараметр матрицы формата : Default (H.263)Идентификатор кодека : DX50Идентификатор кодека/Подсказка : DivX 5Продолжительность : 1 ч. 29 м.Битрейт : 947 Кбит/секШирина : 688 пикселейВысота : 368 пикселейСоотношение сторон : 1,85:1Частота кадров : 25,000 кадров/секЦветовое пространство : YUVСубдискретизация насыщенности : 4:2:0Битовая глубина : 8 битТип развёртки : ПрогрессивнаяМетод сжатия : С потерямиБит/(Пиксели*Кадры) : 0.150Размер потока : 609 Мбайт (85%)Библиотека кодирования : XviD 65
    АудиоИдентификатор : 1Формат : MPEG AudioВерсия формата : Version 1Профиль формата : Layer 3Режим : Joint stereoРасширение режима : MS StereoИдентификатор кодека : 55Идентификатор кодека/Подсказка : MP3Продолжительность : 1 ч. 29 м.Вид битрейта : ПостоянныйБитрейт : 160 Кбит/секКаналы : 2 каналаЧастота : 48,0 КГцМетод сжатия : С потерямиРазмер потока : 103 Мбайт (14%)Выравнивание : Соединение по промежуткамПродолжительность промежутка : 40 мс. (1,00 видеокадр)Время предзагрузки промежутка : 504 мс.Библиотека кодирования : LAME3.99rНастройки программы : -m j -V 4 -q 2 -lowpass 17.5 -b 160

    Скриншот с названием фильма

    Скриншоты

    Время раздачи - по возможности.
    Скачать .torrent

    Скачать торрент-файл бесплатно и на максимальной скорости!

    Как скачивать? · Что такое торрент? · Рейтинг и ограничения

    !ВНИМАНИЕ!
    Сайт не распространяет и не хранит электронные версии произведений, а занимается лишь лишь предоставлением доступа к создаваемому пользователями каталогу ссылок на торрент-файлы, которые содержат только списки хеш-сумм, убедительная просьба с жалобами обращаться напрямую к пользователю. Файлы для обмена на трекере предоставлены пользователями сайта, и администрация не несёт ответственности за их содержание. Просьба не заливать файлы, защищенные авторскими правами, а также файлы нелегального содержания!


    _________________
    [Профиль] [ЛС]
    Показать сообщения:    
    Ответить на тему

    Текущее время: Сегодня, в 03:17

    Часовой пояс: GMT + 2



    Вы не можете начинать темы
    Вы не можете отвечать на сообщения
    Вы не можете редактировать свои сообщения
    Вы не можете удалять свои сообщения
    Вы не можете голосовать в опросах
    Вы не можете прикреплять файлы к сообщениям
    Вы не можете скачивать файлы