BitTorrentTracker PerecTracker.org
BitTorrentTracker PerecTracker.org
    
Регистрация  ·  Вход
 
 · 
Забыли пароль?

  • Убить дважды / Серии: 1-4 из 4 (Сергей Чекалов) [2013, криминал, драма, HDTV (1080i)]

    Ответить на тему
     
    Автор Сообщение

    rechyn

    Создавать темы 26-Мар-2016 16:48

           

    [Цитировать]

    Убить дважды--Год выпуска: 2013
    Производство: "Star Media"
    Жанр: криминал, драма
    Продолжительность: 00:45:00
    Субтитры: нет-Режиссёр: Сергей Чекалов-В ролях:
    Виктория Исакова, Аня Иванова, Дмитрий Суржиков, Олег Савкин, Сергей Угрюмов, Ольга Лукьяненко, Сергей Радченко (III), Сергей Сипливый,
    Вова Машук, Антон Письменный, Даниил Ан, Карина Разумовская, Алла Мартынюк, Заза Чантурия, Дмитрий Гаврилов (II)-Описание:
    Мария Данилова живет счастливо: она замужем за бизнесменом Игорем, растит 6-летнюю дочь, Олесю. Мария владеет большим помещением в центре города, в котором содержит салон красоты. Здание стоит немалых денег, но для Марии это не просто недвижимость, а память об отце. У Игоря дела идут неважно: его фирма на грани банкротства. Кроме того, он задолжал приличную сумму ростовщику Корнилову. Чтобы рассчитаться с долгами и сохранить бизнес, Игорь просит жену продать салон.
    Но Мария не собирается помогать мужу: накануне вечером она случайно узнает о том, что у него есть любовница. Разъяренный отказом Игорь уходит из дома. Во время ужина к Марии заходит ее сестра Тамара. Неожиданно Марии становится плохо, и она засыпает, а очнувшись, обнаруживает себя на полу в гостиной. Кругом беспорядок, на стенах чья-то кровь. Следствие обвиняет Марию в убийстве мужа, вскоре обнаруживается и его тело, вернее сожжённый труп, который невозможно опознать. Так Данилова оказывается в тюрьме.
    Тамара удочеряет Олесю, и Мария передает сестре права на свой бизнес, чтобы дочка ни в чем не нуждалась. Через несколько месяцев Тамара продает салон и уезжает из города вместе с Олесей. Мария бежит из тюрьмы, чтобы восстановить справедливость и найти дочь. Вслед за ней пускается следователь Владислав Куликов, который с самого начала сомневается в виновности Даниловой. Марии предстоит пройти через массу тяжелых испытаний, чтобы доказать, что на самом деле она стала жертвой коварного плана Тамары и Игоря.-Все раздачи сериала-Возраст: 16+-Качество: HDTV (1080i)
    Формат: TS
    Видео кодек: AVC
    Аудио кодек: MP2

    Видео: AVC, 1920 х 1080 (16:9), 25,000 кадр/сек, 7 859 Кбит/сек, 0.152 bit/pixel
    Аудио: MP2, 48000 Hz, 192 Kbps, 2 канала
    -

    MediaInfo

    General
    ID : 1 (0x1)
    Complete name : D:\Раздачи\Убить дважды (1-4 серии из 4) HDTV (1080i)\Ubit.dvazhdy.01.2013.HDTV.1080i.ts
    Format : MPEG-TS
    File size : 2.75 GiB
    Duration : 46mn 25s
    Overall bit rate mode : Variable
    Overall bit rate : 8 472 Kbps
    Video
    ID : 901 (0x385)
    Menu ID : 90 (0x5A)
    Format : AVC
    Format/Info : Advanced Video Codec
    Format profile : Main@L4
    Format settings, CABAC : Yes
    Format settings, ReFrames : 2 frames
    Format settings, GOP : M=3, N=30
    Codec ID : 27
    Duration : 46mn 25s
    Bit rate : 7 859 Kbps
    Width : 1 920 pixels
    Height : 1 080 pixels
    Display aspect ratio : 16:9
    Frame rate : 25.000 fps
    Color space : YUV
    Chroma subsampling : 4:2:0
    Bit depth : 8 bits
    Scan type : MBAFF
    Scan type, store method : Interleaved fields
    Scan order : Top Field First
    Bits/(Pixel*Frame) : 0.152
    Stream size : 2.55 GiB (93%)
    Color range : Limited
    Color primaries : BT.709
    Transfer characteristics : BT.709
    Matrix coefficients : BT.709
    Audio
    ID : 902 (0x386)
    Menu ID : 90 (0x5A)
    Format : MPEG Audio
    Format version : Version 1
    Format profile : Layer 2
    Codec ID : 3
    Duration : 46mn 25s
    Bit rate mode : Constant
    Bit rate : 192 Kbps
    Channel(s) : 2 channels
    Sampling rate : 48.0 KHz
    Compression mode : Lossy
    Stream size : 63.8 MiB (2%)
    Language : Russian
    -

    Скриншоты сериала


    -
    Скачать .torrent

    Скачать торрент-файл бесплатно и на максимальной скорости!

    Как скачивать? · Что такое торрент? · Рейтинг и ограничения

    !ВНИМАНИЕ!
    Сайт не распространяет и не хранит электронные версии произведений, а занимается лишь лишь предоставлением доступа к создаваемому пользователями каталогу ссылок на торрент-файлы, которые содержат только списки хеш-сумм, убедительная просьба с жалобами обращаться напрямую к пользователю. Файлы для обмена на трекере предоставлены пользователями сайта, и администрация не несёт ответственности за их содержание. Просьба не заливать файлы, защищенные авторскими правами, а также файлы нелегального содержания!


    _________________
    [Профиль] [ЛС]
    Показать сообщения:    
    Ответить на тему

    Текущее время: Сегодня, в 10:31

    Часовой пояс: GMT + 2



    Вы не можете начинать темы
    Вы не можете отвечать на сообщения
    Вы не можете редактировать свои сообщения
    Вы не можете удалять свои сообщения
    Вы не можете голосовать в опросах
    Вы не можете прикреплять файлы к сообщениям
    Вы не можете скачивать файлы