BitTorrentTracker PerecTracker.org
BitTorrentTracker PerecTracker.org
    
Регистрация  ·  Вход
 
 · 
Забыли пароль?

  • Курортный роман / Серии: 1-4 из 4 (Игорь Мужжухин) [2015, комедия, HDTVRip]

    Ответить на тему
     
    Автор Сообщение

    rechyn

    Создавать темы 26-Мар-2016 16:45

           

    [Цитировать]

    Курортный роман
    Год выпуска: 2015
    Производство: «Компания Феникс-Фильм»
    Жанр: комедия
    Продолжительность: серия 00:48:03
    Субтитры: Отсутствуют
    Режиссёр: Игорь Мужжухин
    В ролях: Софья Каштанова, Дарья Калмыкова, Наталья Ноздрина, Алексей Фатеев, Игорь Гудеев, Владимир Стержаков, Владимир Долинский, Сергей Карякин, Михаил Сафронов (II), Наталья Кондратьева (II), Инна Хотеенкова, Андрей Харенко
    Описание: Курортная любовь коротка. В идеале, она состоит всего из трех стадий: «знакомство», «восторг-восторг-восторг», «расставание навсегда». Особенно везучие способны за пару недель отпуска найти свою единственную (или единственного) даже несколько раз.
    Сэмпл: http://multi-up.com/1094755
    Все раздачи сериала
    Качество: HDTVRip
    Формат: AVI
    Видео кодек: XviD
    Аудио кодек: AC3
    Видео: 704x400 (16:9), 25.000 fps, XviD 73 ~1800 kbps avg, 0.256 bit/pixel
    Аудио: AC3, 384 kbps, 48 kHz, 6 ch

    MI

    General
    Complete name : F:\Video\Сериалы\Курортный роман. HDTVRip\Kurortnyj roman.01 seriya.HDTVRip.avi
    Format : AVI
    Format/Info : Audio Video Interleave
    File size : 754 MiB
    Duration : 48mn 3s
    Overall bit rate : 2 194 Kbps
    Writing application : VirtualDubMod 1.5.10.3 | www.virtualdub-fr.org || (build 2550/release)
    Writing library : VirtualDubMod build 2550/release
    Video
    ID : 0
    Format : MPEG-4 Visual
    Format profile : Advanced Simple@L5
    Format settings, BVOP : 1
    Format settings, QPel : No
    Format settings, GMC : No warppoints
    Format settings, Matrix : Custom
    Codec ID : XVID
    Codec ID/Hint : XviD
    Duration : 48mn 3s
    Bit rate : 1 800 Kbps
    Width : 704 pixels
    Height : 400 pixels
    Display aspect ratio : 16:9
    Frame rate : 25.000 fps
    Color space : YUV
    Chroma subsampling : 4:2:0
    Bit depth : 8 bits
    Scan type : Progressive
    Compression mode : Lossy
    Bits/(Pixel*Frame) : 0.256
    Stream size : 619 MiB (82%)
    Writing library : XviD 73
    Audio
    ID : 1
    Format : AC-3
    Format/Info : Audio Coding 3
    Mode extension : CM (complete main)
    Format settings, Endianness : Big
    Codec ID : 2000
    Duration : 48mn 3s
    Bit rate mode : Constant
    Bit rate : 384 Kbps
    Channel(s) : 6 channels
    Channel positions : Front: L C R, Side: L R, LFE
    Sampling rate : 48.0 KHz
    Frame rate : 31.250 fps (1536 spf)
    Compression mode : Lossy
    Stream size : 132 MiB (18%)
    Alignment : Split accross interleaves
    Interleave, duration : 40 ms (1.00 video frame)
    Interleave, preload duratio : 500 ms

    Скриншоты

    Скачать .torrent

    Скачать торрент-файл бесплатно и на максимальной скорости!

    Как скачивать? · Что такое торрент? · Рейтинг и ограничения

    !ВНИМАНИЕ!
    Сайт не распространяет и не хранит электронные версии произведений, а занимается лишь лишь предоставлением доступа к создаваемому пользователями каталогу ссылок на торрент-файлы, которые содержат только списки хеш-сумм, убедительная просьба с жалобами обращаться напрямую к пользователю. Файлы для обмена на трекере предоставлены пользователями сайта, и администрация не несёт ответственности за их содержание. Просьба не заливать файлы, защищенные авторскими правами, а также файлы нелегального содержания!


    _________________
    [Профиль] [ЛС]
    Показать сообщения:    
    Ответить на тему

    Текущее время: Сегодня, в 01:20

    Часовой пояс: GMT + 2



    Вы не можете начинать темы
    Вы не можете отвечать на сообщения
    Вы не можете редактировать свои сообщения
    Вы не можете удалять свои сообщения
    Вы не можете голосовать в опросах
    Вы не можете прикреплять файлы к сообщениям
    Вы не можете скачивать файлы