Register  ·  Log in
Forgot password?

  • Курортный роман / Серии: 1-4 из 4 (Игорь Мужжухин) [2015, комедия, HDTVRip]

    Reply to topic
    Author Message


    Post 26-Mar-2016 17:45



    Курортный роман
    Год выпуска: 2015
    Производство: «Компания Феникс-Фильм»
    Жанр: комедия
    Продолжительность: серия 00:48:03
    Субтитры: Отсутствуют
    Режиссёр: Игорь Мужжухин
    В ролях: Софья Каштанова, Дарья Калмыкова, Наталья Ноздрина, Алексей Фатеев, Игорь Гудеев, Владимир Стержаков, Владимир Долинский, Сергей Карякин, Михаил Сафронов (II), Наталья Кондратьева (II), Инна Хотеенкова, Андрей Харенко
    Описание: Курортная любовь коротка. В идеале, она состоит всего из трех стадий: «знакомство», «восторг-восторг-восторг», «расставание навсегда». Особенно везучие способны за пару недель отпуска найти свою единственную (или единственного) даже несколько раз.
    Все раздачи сериала
    Качество: HDTVRip
    Формат: AVI
    Видео кодек: XviD
    Аудио кодек: AC3
    Видео: 704x400 (16:9), 25.000 fps, XviD 73 ~1800 kbps avg, 0.256 bit/pixel
    Аудио: AC3, 384 kbps, 48 kHz, 6 ch


    Complete name : F:\Video\Сериалы\Курортный роман. HDTVRip\Kurortnyj roman.01 seriya.HDTVRip.avi
    Format : AVI
    Format/Info : Audio Video Interleave
    File size : 754 MiB
    Duration : 48mn 3s
    Overall bit rate : 2 194 Kbps
    Writing application : VirtualDubMod | || (build 2550/release)
    Writing library : VirtualDubMod build 2550/release
    ID : 0
    Format : MPEG-4 Visual
    Format profile : Advanced Simple@L5
    Format settings, BVOP : 1
    Format settings, QPel : No
    Format settings, GMC : No warppoints
    Format settings, Matrix : Custom
    Codec ID : XVID
    Codec ID/Hint : XviD
    Duration : 48mn 3s
    Bit rate : 1 800 Kbps
    Width : 704 pixels
    Height : 400 pixels
    Display aspect ratio : 16:9
    Frame rate : 25.000 fps
    Color space : YUV
    Chroma subsampling : 4:2:0
    Bit depth : 8 bits
    Scan type : Progressive
    Compression mode : Lossy
    Bits/(Pixel*Frame) : 0.256
    Stream size : 619 MiB (82%)
    Writing library : XviD 73
    ID : 1
    Format : AC-3
    Format/Info : Audio Coding 3
    Mode extension : CM (complete main)
    Format settings, Endianness : Big
    Codec ID : 2000
    Duration : 48mn 3s
    Bit rate mode : Constant
    Bit rate : 384 Kbps
    Channel(s) : 6 channels
    Channel positions : Front: L C R, Side: L R, LFE
    Sampling rate : 48.0 KHz
    Frame rate : 31.250 fps (1536 spf)
    Compression mode : Lossy
    Stream size : 132 MiB (18%)
    Alignment : Split accross interleaves
    Interleave, duration : 40 ms (1.00 video frame)
    Interleave, preload duratio : 500 ms


    Download .torrent

    Download free and at maximum speed!

    How to Download? · What is a torrent? · Ratings and Limitations

    The site does not extend and does not store electronic(digital) versions of products, and only gives access to a reference catalogue created by users on torrent-files which contain only lists of the hash-sums, the earnest entreaty, with complaints(abuse) to access directly to the user. Files for an exchange on tracker are given by users of a site, and the administration does not bear the responsibility for their maintenance. The request to not fill in the files protected by copyrights, and also files of the illegal maintenance!

    [Profile] [PM]
    Display posts from previous:    
    Reply to topic

    The time now is: Today 21:22

    All times are GMT + 3 Hours

    You cannot post new topics in this forum
    You cannot reply to topics in this forum
    You cannot edit your posts in this forum
    You cannot delete your posts in this forum
    You cannot vote in polls in this forum
    You cannot attach files in this forum
    You cannot download files in this forum