BitTorrentTracker PerecTracker.org
BitTorrentTracker PerecTracker.org
    
Регистрация  ·  Вход
 
 · 
Забыли пароль?

  • Дэдпул / Deadpool (Тим Миллер / Tim Miller) [2016, США, Фантастика, боевик, комедия, приключения, WEBRip] Dub (Line)

    Ответить на тему
     
    Автор Сообщение

    rechyn

    Создавать темы 26-Мар-2016 06:00

           

    [Цитировать]

    Дэдпул / Deadpool
    «Стань свидетелем, как он кончит»
    -Год выхода: 2016
    Выпущено: США, Канада / 20th Century Fox Film Corporation
    Жанр: фантастика, боевик, комедия, приключения
    Продолжительность: 01:47:47
    Перевод: Профессиональный (полное дублирование) Line*
    Субтитры: нет-Режиссер:
    Тим Миллер / Tim Miller-В ролях:
    Райан Рейнольдс, Морена Баккарин, Эд Скрейн, ТиДжей Миллер, Джина Карано, Брианна Хилдебранд, Стефан Капичич, Лесли Уггэмс, Джед Риис, Каран Сони, Майкл Беняер, Стайл Дэйн, Кайл Кэсси, Тэйлор Хиксон, Айзи, Наика Туссэн, Рендал Ридер, Айзек С. Синглтон мл., Джастин Шиппелт, Донна Ямамото-О фильме:
    Уэйд Уилсон — наёмник. Будучи побочным продуктом программы вооружённых сил под названием «Оружие X», Уилсон приобрёл невероятную силу, проворство и способность к исцелению. Но страшной ценой: его клеточная структура постоянно меняется, а здравомыслие сомнительно. Всё, чего Уилсон хочет, — это держаться на плаву в социальной выгребной яме. Но течение в ней слишком быстрое.-| Сэмпл |-Качество: WEBRip
    Формат: AVI
    Видео: 720x304 (2.37:1), 29.970 fps, XviD build 67 ~1733 kbps avg, 0.26 bit/pixel
    Аудио: 48 kHz, MPEG Layer 3, 2 ch, ~192.00 kbps avg-* Имеются пропуски перевода там, где была наложена, а затем вырезана реклама на диалогах, на них наложен оригинал
    -

    Скриншоты

    -

    MediaInfo

    General
    Complete name                            : D:\Deadpool_2016_WEBRip_Line_by_Dalemake.avi
    Format                                   : AVI
    Format/Info                              : Audio Video Interleave
    File size                                : 1.46 GiB
    Duration                                 : 1h 47mn
    Overall bit rate                         : 1 937 Kbps
    Writing application                      : VirtualDubMod 1.5.10.3 | www.virtualdub-fr.org || (build 2550/release)
    Writing library                          : VirtualDubMod build 2550/release
    Video
    ID                                       : 0
    Format                                   : MPEG-4 Visual
    Format profile                           : Advanced Simple@L5
    Format settings, BVOP                    : 1
    Format settings, QPel                    : No
    Format settings, GMC                     : No warppoints
    Format settings, Matrix                  : Custom
    Codec ID                                 : XVID
    Codec ID/Hint                            : XviD
    Duration                                 : 1h 47mn
    Bit rate                                 : 1 733 Kbps
    Width                                    : 720 pixels
    Height                                   : 304 pixels
    Display aspect ratio                     : 2.35:1
    Frame rate                               : 29.970 (29970/1000) fps
    Color space                              : YUV
    Chroma subsampling                       : 4:2:0
    Bit depth                                : 8 bits
    Scan type                                : Progressive
    Compression mode                         : Lossy
    Bits/(Pixel*Frame)                       : 0.264
    Stream size                              : 1.30 GiB (89%)
    Writing library                          : XviD 67
    Audio
    ID                                       : 1
    Format                                   : MPEG Audio
    Format version                           : Version 1
    Format profile                           : Layer 3
    Mode                                     : Joint stereo
    Mode extension                           : MS Stereo
    Codec ID                                 : 55
    Codec ID/Hint                            : MP3
    Duration                                 : 1h 47mn
    Bit rate mode                            : Constant
    Bit rate                                 : 192 Kbps
    Channel(s)                               : 2 channels
    Sampling rate                            : 48.0 KHz
    Compression mode                         : Lossy
    Stream size                              : 148 MiB (10%)
    Alignment                                : Aligned on interleaves
    Interleave, duration                     : 33 ms (1.00 video frame)
    Interleave, preload duration             : 504 ms
    -
    Скачать .torrent

    Скачать торрент-файл бесплатно и на максимальной скорости!

    Как скачивать? · Что такое торрент? · Рейтинг и ограничения

    !ВНИМАНИЕ!
    Сайт не распространяет и не хранит электронные версии произведений, а занимается лишь лишь предоставлением доступа к создаваемому пользователями каталогу ссылок на торрент-файлы, которые содержат только списки хеш-сумм, убедительная просьба с жалобами обращаться напрямую к пользователю. Файлы для обмена на трекере предоставлены пользователями сайта, и администрация не несёт ответственности за их содержание. Просьба не заливать файлы, защищенные авторскими правами, а также файлы нелегального содержания!


    _________________
    [Профиль] [ЛС]
    Показать сообщения:    
    Ответить на тему

    Текущее время: Сегодня, в 14:45

    Часовой пояс: GMT + 2



    Вы не можете начинать темы
    Вы не можете отвечать на сообщения
    Вы не можете редактировать свои сообщения
    Вы не можете удалять свои сообщения
    Вы не можете голосовать в опросах
    Вы не можете прикреплять файлы к сообщениям
    Вы не можете скачивать файлы