BitTorrentTracker PerecTracker.org
BitTorrentTracker PerecTracker.org
    
Регистрация  ·  Вход
 
 · 
Забыли пароль?

  • За чужие грехи (Сергей Борчуков) [2015, Россия, мелодрама, HDTVRip]

    Ответить на тему
     
    Автор Сообщение

    Flirldrerve

    Создавать темы 25-Мар-2016 21:49

           

    [Цитировать]

    За чужие грехи
    Страна: Россия
    Жанр: мелодрама
    Год выпуска: 2015
    Продолжительность: 01:31:14
    Cубтитры: нет
    Оригинальная аудиодорожка: русский-Режиссер: Сергей Борчуков-В ролях: Светлана Тимофеева-Летуновская, Андрей Егоров (I), Ольга Чудакова, Даниил Мызников, Александр Орав, Полина Леонова, Дарья Белоусова, Ёла Санько, Сергей Беляев, Ксения Ильясова, Мария Говорова, Юлия Куварзина, Светлана Иозефий, Дана Назарова, Ксения Непотребная, Алексей Богачук, Алексей Матошин, Елена Грибова, Михаил Скачков, Степан Середа-Описание: Шура — женщина 45 лет, привлекательная вдова. Она живёт вместе с 25-летним сыном, невесткой и внуком в одной квартире. Работает бухгалтером. Шура готова отдать всё до последнего сыну и внуку. Мягкая и отзывчивая, она помогает всем, чем и пользуется её невестка. Сын Шуры Игорь — подкаблучник. Он без памяти любит свою жену, которая ему изменяет, и готов даже предать мать ради спокойствия жены. Сын разменивает квартиру матери, и Шура оказывается в коммуналке на окраине города.
    Шура уезжает с внуком отдыхать в деревню, где встречает свою любовь — Фёдора, доброго, честного и работящего мужчину. У него есть жена Нинка, хитрая и противная, которая превращает его жизнь в каждодневный ад.
    Между Шурой и Фёдором вспыхивает любовь, но Шура уезжает обратно в город, так как не может встать между Фёдором и Нинкой.
    Нинка предаёт мужа, крадёт у него чужие деньги и исчезает. Федор приезжает в город, где вновь встречает Шуру…-Качество видео: HDTVRip
    Формат видео: AVI
    Видео: 720x400 (1.80:1), 25 fps, XviD build 50 ~2093 kbps avg, 0.29 bit/pixel
    Аудио: 48 kHz, AC3 Dolby Digital, 2/0 (L,R) ch, ~192 kbps-Сэмпл-

    MediaInfo

    Format                      : AVI
    Format/Info                 : Audio Video Interleave
    File size                   : 1.46 GiB
    Duration                    : 1h 31mn
    Overall bit rate            : 2 296 Kbps
    Writing application         : VirtualDubMod 1.5.10.3 | www.virtualdub-fr.org || (build 2550/release)
    Writing library             : VirtualDubMod build 2550/release
    Video
    ID                          : 0
    Format                      : MPEG-4 Visual
    Format profile              : Advanced Simple@L5
    Format settings, BVOP       : 1
    Format settings, QPel       : No
    Format settings, GMC        : No warppoints
    Format settings, Matrix     : Default (MPEG)
    Codec ID                    : XVID
    Codec ID/Hint               : XviD
    Duration                    : 1h 31mn
    Bit rate                    : 2 094 Kbps
    Width                       : 720 pixels
    Height                      : 400 pixels
    Display aspect ratio        : 16:9
    Frame rate                  : 25.000 fps
    Color space                 : YUV
    Chroma subsampling          : 4:2:0
    Bit depth                   : 8 bits
    Scan type                   : Progressive
    Compression mode            : Lossy
    Bits/(Pixel*Frame)          : 0.291
    Stream size                 : 1.33 GiB (91%)
    Writing library             : XviD 1.2.1 (UTC 2008-12-04)
    Audio
    ID                          : 1
    Format                      : AC-3
    Format/Info                 : Audio Coding 3
    Mode extension              : CM (complete main)
    Format settings, Endianness : Big
    Codec ID                    : 2000
    Duration                    : 1h 31mn
    Bit rate mode               : Constant
    Bit rate                    : 192 Kbps
    Channel(s)                  : 2 channels
    Channel positions           : Front: L R
    Sampling rate               : 48.0 KHz
    Compression mode            : Lossy
    Stream size                 : 125 MiB (8%)
    Alignment                   : Split accross interleaves
    Interleave, duration        : 40 ms (1.00 video frame)
    Interleave, preload duratio : 500 ms

    Скриншоты

    Скачать .torrent

    Скачать торрент-файл бесплатно и на максимальной скорости!

    Как скачивать? · Что такое торрент? · Рейтинг и ограничения

    !ВНИМАНИЕ!
    Сайт не распространяет и не хранит электронные версии произведений, а занимается лишь лишь предоставлением доступа к создаваемому пользователями каталогу ссылок на торрент-файлы, которые содержат только списки хеш-сумм, убедительная просьба с жалобами обращаться напрямую к пользователю. Файлы для обмена на трекере предоставлены пользователями сайта, и администрация не несёт ответственности за их содержание. Просьба не заливать файлы, защищенные авторскими правами, а также файлы нелегального содержания!


    _________________
    [Профиль] [ЛС]
    Показать сообщения:    
    Ответить на тему

    Текущее время: Сегодня, в 09:52

    Часовой пояс: GMT + 2



    Вы не можете начинать темы
    Вы не можете отвечать на сообщения
    Вы не можете редактировать свои сообщения
    Вы не можете удалять свои сообщения
    Вы не можете голосовать в опросах
    Вы не можете прикреплять файлы к сообщениям
    Вы не можете скачивать файлы