BitTorrentTracker PerecTracker.org
BitTorrentTracker PerecTracker.org
    
Регистрация  ·  Вход
 
 · 
Забыли пароль?

  • Хранитель времени / Hugo (Мартин Скорсезе / Martin Scorsese) [2011, США, Драма, детектив, приключения, семейный, BDRip] Dub + Eng + Sub rus, eng

    Ответить на тему
     
    Автор Сообщение

    rechyn

    Создавать темы 25-Мар-2016 21:39

           

    [Цитировать]

    Хранитель времени / Hugo--Страна: США
    Жанр: Драма, детектив, приключения, семейный
    Год выпуска: 2011
    Продолжительность: 02:06:21
    Перевод: Профессиональный(полное дублирование)
    Cубтитры:русские, английские
    Режиссер: Мартин Скорсезе / Martin Scorsese
    В ролях: Хлоя Морец, Эмили Мортимер, Джуд Лоу, Хелен МакКрори, Кристофер Ли, Саша Барон Коэн, Бен Кингсли, Рэй Уинстоун, Ричард Гриффитс, Аса Баттерфилд
    Описание: Приключения находчивого мальчика, который должен раскрыть секрет, оставленный его отцом, чтобы найти то место, которое сможет назвать своим домом.


    CЭМПЛ
    Качество видео: BDRip (Hugo.2011.BluRay.1080p.AVC.DTS-HD.MA7.1-CHDBits)
    Формат видео: AVI
    Видео:720x400 (1.80:1), 23.976 fps, XviD build 63 ~2355 kbps avg, 0.34 bit/pixel
    Аудио:48 kHz, AC3 Dolby Digital, 3/2 (L,C,R,l,r) LFE ch, ~448 kbps RUS
    Аудио:48 kHz, AC3 Dolby Digital, 3/2 (L,C,R,l,r) LFE ch, ~384 kbps ENG

    MediaInfo

    General
    Complete name : E:\Downloads\Hugo.2.9.chopper887\Hugo.2.9.chopper887.avi
    Format : AVI
    Format/Info : Audio Video Interleave
    File size : 2.83 GiB
    Duration : 2h 6mn
    Overall bit rate : 3 203 Kbps
    Movie name : Hugo.2.9.chopper887
    Director : chopper887
    Genre : Fantasy
    Writing application : VirtualDubMod 1.5.10.3 | www.virtualdub-fr.org || (build 2550/release)
    Original source form/Name : Movie
    Video
    ID : 0
    Format : MPEG-4 Visual
    Format profile : Advanced Simple@L5
    Format settings, BVOP : 2
    Format settings, QPel : No
    Format settings, GMC : No warppoints
    Format settings, Matrix : Custom
    Codec ID : XVID
    Codec ID/Hint : XviD
    Duration : 2h 6mn
    Bit rate : 2 357 Kbps
    Width : 720 pixels
    Height : 400 pixels
    Display aspect ratio : 16:9
    Frame rate : 23.976 fps
    Color space : YUV
    Chroma subsampling : 4:2:0
    Bit depth : 8 bits
    Scan type : Progressive
    Compression mode : Lossy
    Bits/(Pixel*Frame) : 0.341
    Stream size : 2.08 GiB (74%)
    Writing library : XviD 63
    Audio #1
    ID : 1
    Format : AC-3
    Format/Info : Audio Coding 3
    Mode extension : CM (complete main)
    Codec ID : 2000
    Duration : 2h 6mn
    Bit rate mode : Constant
    Bit rate : 448 Kbps
    Channel(s) : 6 channels
    Channel positions : Front: L C R, Side: L R, LFE
    Sampling rate : 48.0 KHz
    Bit depth : 16 bits
    Compression mode : Lossy
    Stream size : 405 MiB (14%)
    Alignment : Split accross interleaves
    Interleave, duration : 42 ms (1.00 video frame)
    Interleave, preload duration : 500 ms
    Audio #2
    ID : 2
    Format : AC-3
    Format/Info : Audio Coding 3
    Mode extension : CM (complete main)
    Codec ID : 2000
    Duration : 2h 6mn
    Bit rate mode : Constant
    Bit rate : 384 Kbps
    Channel(s) : 6 channels
    Channel positions : Front: L C R, Side: L R, LFE
    Sampling rate : 48.0 KHz
    Bit depth : 16 bits
    Compression mode : Lossy
    Stream size : 347 MiB (12%)
    Alignment : Split accross interleaves
    Interleave, duration : 42 ms (1.00 video frame)
    Interleave, preload duration : 500 ms

    Скриншоты

    Скачать .torrent

    Скачать торрент-файл бесплатно и на максимальной скорости!

    Как скачивать? · Что такое торрент? · Рейтинг и ограничения

    !ВНИМАНИЕ!
    Сайт не распространяет и не хранит электронные версии произведений, а занимается лишь лишь предоставлением доступа к создаваемому пользователями каталогу ссылок на торрент-файлы, которые содержат только списки хеш-сумм, убедительная просьба с жалобами обращаться напрямую к пользователю. Файлы для обмена на трекере предоставлены пользователями сайта, и администрация не несёт ответственности за их содержание. Просьба не заливать файлы, защищенные авторскими правами, а также файлы нелегального содержания!


    _________________
    [Профиль] [ЛС]
    Показать сообщения:    
    Ответить на тему

    Текущее время: Сегодня, в 09:58

    Часовой пояс: GMT + 2



    Вы не можете начинать темы
    Вы не можете отвечать на сообщения
    Вы не можете редактировать свои сообщения
    Вы не можете удалять свои сообщения
    Вы не можете голосовать в опросах
    Вы не можете прикреплять файлы к сообщениям
    Вы не можете скачивать файлы