BitTorrentTracker PerecTracker.org
BitTorrentTracker PerecTracker.org
    
Регистрация  ·  Вход
 
 · 
Забыли пароль?

  • Теория Большого Взрыва / The Big Bang Theory / Сезон 5 Серии 1-24 (24) (Джеймс Берроу) [2011 г., комедия, HDTVRip] Кураж-Бамбей

    Ответить на тему
     
    Автор Сообщение

    rechyn

    Создавать темы 25-Мар-2016 21:26

           

    [Цитировать]

    -Теория Большого Взрыва / The Big Bang Theory--Год выпуска: 2011Жанр: комедияПродолжительность: ~00:21:00Озвучание: Профессиональный (одноголосый, закадровый) /Кураж-Бамбей/Перевод: KitKat, sidxartxa, Zepa, marrky boyВыпущено: СШАсубтитры: Нет-Режиссер: Марк СендроускиВ ролях: Джонни Галекки, Джим Парсонс, Кейли Куоко, Саймон Хельберг, Кунал Найяр- -Описание:Два блестящих физика, Леонард и Шелдон, «великие умы», которые понимают как «работает вселенная». Но их гениальность ничуть не помогает им общаться с людьми, особенно с женщинами. Всё начинает меняться, когда напротив них поселяется красавица Пенни.
    Когда Леонард и Шелдон встречают Пенни, Леонард сразу же начинает интересоваться ею. Он видит в общении с Пенни огромную перспективу… вплоть до любви, однако Шелдон понимает, что мечтам его друга не суждено сбыться.
    Стоит также отметить пару странных друзей этих физиков: Воловиц, который любит употреблять фразы на разных языках, включая русский, и Раджеш Кутраппали, теряющий дар речи при виде женщин.
    -

    Эпизоды

    Episode 1: The Skank Reflex Analysis
    Episode 2: The Infestation Hypothesis
    Episode 3: The Pulled Groin Extrapolation
    Episode 4: The Wiggly Finger Catalyst
    Episode 5: The Russian Rocket Reaction
    Episode 6: The Rhinitis Revelation
    Episode 7: The Good Guy Fluctuation
    Episode 8: The Isolation Permutation
    Episode 9: The Ornithophobia Diffusion
    Episode 10: The Flaming Spittoon Acquisition
    Episode 11: The Speckerman Recurrence
    Episode 12: The shiny trinket maneuver
    Episode 13: The recombination hypothesis
    Episode 14: The beta test initiation
    Episode 15: The friendship contraction
    Episode 16: The vacation solution
    Episode 17: The Rothman disintegration
    Episode 18: The werewolf transformation
    Episode 19: The weekend vortex
    Episode 20: The Transporter Malfunction
    Episode 21: The Transporter Malfunction
    Episode 22: The Stag Convergence
    Episode 23: The Launch Acceleration
    Episode 24: The Countdown Reflection
    -Качество: HDTVRip
    Формат: AVI
    Видео кодек: XviD
    Аудио кодек: MP3
    Видео: 624x352 (1.77:1), 23.976 fps, XviD build 50 ~993 kbps avg, 0.19 bit/pixel
    Аудио: Русский: 48 kHz, MPEG Layer 3, 2 ch, ~160.00 kbps avg | Профессиональный (одноголосый, закадровый) /Кураж-Бамбей/ |-Все раздачи сериала | | Семпл |-Релиз: -

    MI

    General
    Complete name : I:\РАЗДАЧИ НА TORRENTS.RU\The Big Bang Theory - Season 5- [Kuraj-Bambey.Ru]\The.Big.Bang.Theory.S05E01.rus.HDTVrip.[Kuraj-Bambey.Ru].avi
    Format : AVI
    Format/Info : Audio Video Interleave
    File size : 176 MiB
    Duration : 21mn 11s
    Overall bit rate : 1 162 Kbps
    Writing application : Some super fast AVI muxer
    Writing library : VirtualDub-MPEG2 build 24586/release
    Video
    Format : MPEG-4 Visual
    Format profile : Streaming Video@L1
    Format settings, BVOP : Yes
    Format settings, QPel : No
    Format settings, GMC : No warppoints
    Format settings, Matrix : Default (H.263)
    Codec ID : XVID
    Codec ID/Hint : XviD
    Duration : 21mn 11s
    Bit rate : 992 Kbps
    Width : 624 pixels
    Height : 352 pixels
    Display aspect ratio : 16/9
    Frame rate : 23.976 fps
    Resolution : 24 bits
    Colorimetry : 4:2:0
    Scan type : Progressive
    Bits/(Pixel*Frame) : 0.188
    Stream size : 150 MiB (85%)
    Writing library : XviD 70
    Audio
    Format : MPEG Audio
    Format version : Version 1
    Format profile : Layer 3
    Codec ID : 55
    Codec ID/Hint : MP3
    Duration : 21mn 11s
    Bit rate mode : Constant
    Bit rate : 160 Kbps
    Channel(s) : 2 channels
    Sampling rate : 48.0 KHz
    Resolution : 16 bits
    Stream size : 24.3 MiB (14%)
    Alignment : Aligned on interleaves
    Interleave, duration : 42 ms (1.00 video frame)
    Interleave, preload duration : 504 ms
    -

    Скриншоты

    --
    Скачать .torrent

    Скачать торрент-файл бесплатно и на максимальной скорости!

    Как скачивать? · Что такое торрент? · Рейтинг и ограничения

    !ВНИМАНИЕ!
    Сайт не распространяет и не хранит электронные версии произведений, а занимается лишь лишь предоставлением доступа к создаваемому пользователями каталогу ссылок на торрент-файлы, которые содержат только списки хеш-сумм, убедительная просьба с жалобами обращаться напрямую к пользователю. Файлы для обмена на трекере предоставлены пользователями сайта, и администрация не несёт ответственности за их содержание. Просьба не заливать файлы, защищенные авторскими правами, а также файлы нелегального содержания!


    _________________
    [Профиль] [ЛС]
    Показать сообщения:    
    Ответить на тему

    Текущее время: Сегодня, в 16:41

    Часовой пояс: GMT + 2



    Вы не можете начинать темы
    Вы не можете отвечать на сообщения
    Вы не можете редактировать свои сообщения
    Вы не можете удалять свои сообщения
    Вы не можете голосовать в опросах
    Вы не можете прикреплять файлы к сообщениям
    Вы не можете скачивать файлы