Register  ·  Log in
Forgot password?

  • Особо Тяжкие Преступления / Major Crimes / Сезон: 4 / Серии: 1-23 из 23 (Дэвид МакУиртер, Стив Робин, Мишель М. Робин) [2015, детектив, WEB-DLRip] VO (DexterTV)

    Reply to topic
    Author Message


    Post 25-Mar-2016 21:27



    -Особо Тяжкие Преступления / Major Crimes-Год выпуска: 2015
    Страна: США
    Жанр: детектив
    Продолжительность: 00:44:00
    Перевод: Любительский (одноголосый закадровый) (DexterTV)
    Режиссёр: Дэвид МакУиртер, Стив Робин, Мишель М. Робин
    В ролях: Дж. У. Бейли, Грэхэм Патрик Мартин, Мэри МакДоннелл, Энтони Джон Дэнисон, Майкл Пол Чан, Рэймонд Крус, Филлип П. Кин, Кирран Джованни, Джонатан Дель Арко, Рэнсфорд Доэрти
    Описание: Продолжение сериала Ищейка. После увольнения Бренды Ли Джонсон руководство Отделом Ососбо Опасных преступлений полиции Лос-Анджелеса берет в свои руки капитан Рэйдор. Однако ей предстоит работать в команде, которая заранее испытывает к ней антипатию, ведь антипатию к ней всегда испытывала шеф Джонсон.-Ссылка на предыдущие и альтернативные раздачи
    Редактор текста: Марина Ганеева
    Текст читал: Александр Якименко
    Монтаж видео и сведения звука: Сергей Лаптев-Качество: WEB-DLRip
    Формат: AVI
    Видео: 720x400 (16:9), 1360 Kbps, 23.976 fps, 0.283 bit/pixel
    Аудио: MP3, 48 kHz, 2 ch, 192 kbps - rus
    Субтитры: отсутствуют

    Список серий

    1. A Rose Is a Rose
    2. Roadtrip
    3. Photofinish
    4. New Policeman
    5. Overdrill
    6. Next Round
    7. Targets of Opportunity
    8. A Finish Police
    9. Murders
    10. Family Tradegy


    Format : AVI
    Format/Info : Audio Video Interleave
    File size : 520 MiB
    Duration : 42mn 8s
    Overall bit rate : 1 726 Kbps
    Writing application : VirtualDubMod | || (build 2550/release)
    Writing library : VirtualDub build 35576/release
    ID : 0
    Format : MPEG-4 Visual
    Format profile : Advanced Simple@L5
    Format settings, BVOP : 1
    Format settings, QPel : No
    Format settings, GMC : No warppoints
    Format settings, Matrix : Default (MPEG)
    Codec ID : XVID
    Codec ID/Hint : XviD
    Duration : 42mn 8s
    Bit rate : 1 461 Kbps
    Width : 720 pixels
    Height : 400 pixels
    Display aspect ratio : 16:9
    Frame rate : 23.976 fps
    Color space : YUV
    Chroma subsampling : 4:2:0
    Bit depth : 8 bits
    Scan type : Progressive
    Compression mode : Lossy
    Bits/(Pixel*Frame) : 0.212
    Stream size : 440 MiB (85%)
    Writing library : XviD 1.2.1 (UTC 2008-12-04)
    ID : 1
    Format : MPEG Audio
    Format version : Version 1
    Format profile : Layer 3
    Codec ID : 55
    Codec ID/Hint : MP3
    Duration : 42mn 8s
    Bit rate mode : Constant
    Bit rate : 256 Kbps
    Channel(s) : 2 channels
    Sampling rate : 48.0 KHz
    Compression mode : Lossy
    Stream size : 77.2 MiB (15%)
    Alignment : Split accross interleaves
    Interleave, duration : 42 ms (1.00 video frame)
    Interleave, preload duratio : 500 ms


    Download .torrent

    Download free and at maximum speed!

    How to Download? · What is a torrent? · Ratings and Limitations

    The site does not extend and does not store electronic(digital) versions of products, and only gives access to a reference catalogue created by users on torrent-files which contain only lists of the hash-sums, the earnest entreaty, with complaints(abuse) to access directly to the user. Files for an exchange on tracker are given by users of a site, and the administration does not bear the responsibility for their maintenance. The request to not fill in the files protected by copyrights, and also files of the illegal maintenance!

    [Profile] [PM]
    Display posts from previous:    
    Reply to topic

    The time now is: Today 01:45

    All times are GMT + 3 Hours

    You cannot post new topics in this forum
    You cannot reply to topics in this forum
    You cannot edit your posts in this forum
    You cannot delete your posts in this forum
    You cannot vote in polls in this forum
    You cannot attach files in this forum
    You cannot download files in this forum