BitTorrentTracker PerecTracker.org
BitTorrentTracker PerecTracker.org
    
Регистрация  ·  Вход
 
 · 
Забыли пароль?

  • Особо Тяжкие Преступления / Major Crimes / Сезон: 4 / Серии: 1-23 из 23 (Дэвид МакУиртер, Стив Робин, Мишель М. Робин) [2015, детектив, WEB-DLRip] VO (DexterTV)

    Ответить на тему
     
    Автор Сообщение

    rechyn

    Создавать темы 25-Мар-2016 20:27

           

    [Цитировать]

    -Особо Тяжкие Преступления / Major Crimes-Год выпуска: 2015
    Страна: США
    Жанр: детектив
    Продолжительность: 00:44:00
    Перевод: Любительский (одноголосый закадровый) (DexterTV)
    Режиссёр: Дэвид МакУиртер, Стив Робин, Мишель М. Робин
    В ролях: Дж. У. Бейли, Грэхэм Патрик Мартин, Мэри МакДоннелл, Энтони Джон Дэнисон, Майкл Пол Чан, Рэймонд Крус, Филлип П. Кин, Кирран Джованни, Джонатан Дель Арко, Рэнсфорд Доэрти
    Описание: Продолжение сериала Ищейка. После увольнения Бренды Ли Джонсон руководство Отделом Ососбо Опасных преступлений полиции Лос-Анджелеса берет в свои руки капитан Рэйдор. Однако ей предстоит работать в команде, которая заранее испытывает к ней антипатию, ведь антипатию к ней всегда испытывала шеф Джонсон.-Ссылка на предыдущие и альтернативные раздачи
    Сэмпл-
    Редактор текста: Марина Ганеева
    Текст читал: Александр Якименко
    Монтаж видео и сведения звука: Сергей Лаптев-Качество: WEB-DLRip
    Формат: AVI
    Видео: 720x400 (16:9), 1360 Kbps, 23.976 fps, 0.283 bit/pixel
    Аудио: MP3, 48 kHz, 2 ch, 192 kbps - rus
    Субтитры: отсутствуют

    Список серий

    1. A Rose Is a Rose
    2. Roadtrip
    3. Photofinish
    4. New Policeman
    5. Overdrill
    6. Next Round
    7. Targets of Opportunity
    8. A Finish Police
    9. Murders
    10. Family Tradegy

    MediaInfo

    Format : AVI
    Format/Info : Audio Video Interleave
    File size : 520 MiB
    Duration : 42mn 8s
    Overall bit rate : 1 726 Kbps
    Writing application : VirtualDubMod 1.5.10.3 | www.virtualdub-fr.org || (build 2550/release)
    Writing library : VirtualDub build 35576/release
    Video
    ID : 0
    Format : MPEG-4 Visual
    Format profile : Advanced Simple@L5
    Format settings, BVOP : 1
    Format settings, QPel : No
    Format settings, GMC : No warppoints
    Format settings, Matrix : Default (MPEG)
    Codec ID : XVID
    Codec ID/Hint : XviD
    Duration : 42mn 8s
    Bit rate : 1 461 Kbps
    Width : 720 pixels
    Height : 400 pixels
    Display aspect ratio : 16:9
    Frame rate : 23.976 fps
    Color space : YUV
    Chroma subsampling : 4:2:0
    Bit depth : 8 bits
    Scan type : Progressive
    Compression mode : Lossy
    Bits/(Pixel*Frame) : 0.212
    Stream size : 440 MiB (85%)
    Writing library : XviD 1.2.1 (UTC 2008-12-04)
    Audio
    ID : 1
    Format : MPEG Audio
    Format version : Version 1
    Format profile : Layer 3
    Codec ID : 55
    Codec ID/Hint : MP3
    Duration : 42mn 8s
    Bit rate mode : Constant
    Bit rate : 256 Kbps
    Channel(s) : 2 channels
    Sampling rate : 48.0 KHz
    Compression mode : Lossy
    Stream size : 77.2 MiB (15%)
    Alignment : Split accross interleaves
    Interleave, duration : 42 ms (1.00 video frame)
    Interleave, preload duratio : 500 ms

    Скриншоты

    Скачать .torrent

    Скачать торрент-файл бесплатно и на максимальной скорости!

    Как скачивать? · Что такое торрент? · Рейтинг и ограничения

    !ВНИМАНИЕ!
    Сайт не распространяет и не хранит электронные версии произведений, а занимается лишь лишь предоставлением доступа к создаваемому пользователями каталогу ссылок на торрент-файлы, которые содержат только списки хеш-сумм, убедительная просьба с жалобами обращаться напрямую к пользователю. Файлы для обмена на трекере предоставлены пользователями сайта, и администрация не несёт ответственности за их содержание. Просьба не заливать файлы, защищенные авторскими правами, а также файлы нелегального содержания!


    _________________
    [Профиль] [ЛС]
    Показать сообщения:    
    Ответить на тему

    Текущее время: Сегодня, в 00:09

    Часовой пояс: GMT + 2



    Вы не можете начинать темы
    Вы не можете отвечать на сообщения
    Вы не можете редактировать свои сообщения
    Вы не можете удалять свои сообщения
    Вы не можете голосовать в опросах
    Вы не можете прикреплять файлы к сообщениям
    Вы не можете скачивать файлы