BitTorrentTracker PerecTracker.org
BitTorrentTracker PerecTracker.org
    
Регистрация  ·  Вход
 
 · 
Забыли пароль?

  • Вождь разнокожих (Егор Анашкин) [2012, Россия, Криминальная комедия, HDRip]

    Ответить на тему
     
    Автор Сообщение

    Flirldrerve

    Создавать темы 25-Мар-2016 17:44

           

    [Цитировать]

    Вождь разнокожих
    Страна: Россия
    Жанр: Криминальная комедия
    Год выпуска: 2012
    Продолжительность: 01:29:56
    Cубтитры: отсутствуют
    Режиссёр: Егор Анашкин
    Актёры: Никита Иванов, Дмитрий Дюжев, Григорий Сиятвинда, Мария Миронова, Семён Стругачёв, Виталий Гребенников, Маргарита Бычкова, Олег Дурыгин, Роман Хардиков, Павел Мисаилов, Александр Шаврин, Валентина Березуцкая, Владимир Епископосян, Эдуард Арушанян, Александр Числов, и др.
    Аннотация: Создатели фильма достаточно вольно трактуют новеллу О`Генри "Вождь краснокожих". История малолетнего хулигана была перенесена в форме кинематографической карикатуры в современные реалии российской действительности. Этот фильм не только о разрушительной силе детских шалостей, но также и о природе их происхождения. Этот фильм не простая развлекательная цветная картинка на белой тряпке экрана - в нём создатели затрагивают непреодолимые трудности отношений современных детей и взрослых. Это история большого современного огромного города, где почти каждый глубоко одинок, глубоко одинок в толпе, в толпе таких же одиноких как и он сам. Это история вечно занятых родителей, у которых дети предоставлены сами себе, и лишены полноценного общения как с родителями, так и с ровесниками, лишены почти полностью...

    Качество видео: HDRip
    Формат видео: AVI
    Видео: XviD 65 MPEG-4, 720x384 (1.85:1) 25.000 fps, ~1863 kbps avg, 0.269 bit/pixel
    Аудио: AC-3 Dolby Digital, CBR 448 kbps 6 ch (Front: L C R, Side: L R, LFE) 48.0 KHz

    MediaInfo

    ОбщееПолное имя : Р:\Вождь_разнокожих_2012_HDRip_[perectracker.org].aviФормат : AVIФормат/Информация : Audio Video InterleaveРазмер файла : 1,46 ГбайтПродолжительность : 1 ч. 29 м.Общий поток : 2320 Кбит/секПрограмма кодирования : VirtualDubModRus 1.5.10.2 (build 2542/release)Библиотека кодирования : VirtualDubMod build 2542/release
    ВидеоИдентификатор : 0Формат : MPEG-4 VisualПрофиль формата : Advanced Simple@L5Параметр BVOP формата : 1Параметр QPel формата : НетПараметр GMC формата : Без точки переходаПараметр матрицы формата : ВыборочнаяИдентификатор кодека : XVIDИдентификатор кодека/Подсказка : XviDПродолжительность : 1 ч. 29 м.Битрейт : 1863 Кбит/секШирина : 720 пикселейВысота : 384 пикселяСоотношение сторон : 1,85:1Частота кадров : 25,000 кадров/секЦветовое пространство : YUVСубдискретизация насыщенности : 4:2:0Битовая глубина : 8 битТип развёртки : ПрогрессивнаяМетод сжатия : С потерямиБит/(Пиксели*Кадры) : 0.269Размер потока : 1,17 Гбайт (80%)Библиотека кодирования : XviD 65
    АудиоИдентификатор : 1Формат : AC-3Формат/Информация : Audio Coding 3Расширение режима : CM (complete main)Параметр Endianness формата : BigИдентификатор кодека : 2000Продолжительность : 1 ч. 29 м.Вид битрейта : ПостоянныйБитрейт : 448 Кбит/секКаналы : 6 каналовРасположение каналов : Front: L C R, Side: L R, LFEЧастота : 48,0 КГцБитовая глубина : 16 битМетод сжатия : С потерямиРазмер потока : 288 Мбайт (19%)Выравнивание : Разделение по промежуткамПродолжительность промежутка : 40 мс. (1,00 видеокадр)Время предзагрузки промежутка : 500 мс.

    Скриншот с названием фильма

    Скриншоты

    Скачать .torrent

    Скачать торрент-файл бесплатно и на максимальной скорости!

    Как скачивать? · Что такое торрент? · Рейтинг и ограничения

    !ВНИМАНИЕ!
    Сайт не распространяет и не хранит электронные версии произведений, а занимается лишь лишь предоставлением доступа к создаваемому пользователями каталогу ссылок на торрент-файлы, которые содержат только списки хеш-сумм, убедительная просьба с жалобами обращаться напрямую к пользователю. Файлы для обмена на трекере предоставлены пользователями сайта, и администрация не несёт ответственности за их содержание. Просьба не заливать файлы, защищенные авторскими правами, а также файлы нелегального содержания!


    _________________
    [Профиль] [ЛС]
    Показать сообщения:    
    Ответить на тему

    Текущее время: Сегодня, в 22:27

    Часовой пояс: GMT + 2



    Вы не можете начинать темы
    Вы не можете отвечать на сообщения
    Вы не можете редактировать свои сообщения
    Вы не можете удалять свои сообщения
    Вы не можете голосовать в опросах
    Вы не можете прикреплять файлы к сообщениям
    Вы не можете скачивать файлы