BitTorrentTracker PerecTracker.org
BitTorrentTracker PerecTracker.org
    
Регистрация  ·  Вход
 
 · 
Забыли пароль?

  • Звёздные войны: Пробуждение силы / Star Wars: The Force Awakens (Джей Джей Абрамс / J.J. Abrams) [2015, США, фантастика, приключения, боевик, BDRip-AVC] Dub (Line) + Original + Sub (rus, eng)

    Ответить на тему
     
    Автор Сообщение

    Light

    Создавать темы 25-Мар-2016 17:44

           

    [Цитировать]

    Звёздные войны: Пробуждение силы / Star Wars: The Force Awakens«Every generation has a story»-Страна: США
    Жанр: фантастика, приключения, боевик
    Год выпуска: 2015
    Продолжительность: 02:18:07
    Перевод: Профессиональный (полное дублирование) (LINE)*
    Оригинальная аудиодорожка: английский
    Cубтитры: русские (форс., полные), английские (полные)
    Навигация по главам: есть
    Режиссёр: Джей Джей Абрамс / J.J. Abrams
    В ролях: Джон Бойега, Дэйзи Ридли, Оскар Айзек, Адам Драйвер, Донал Глисон, Харрисон Форд, Марк Хэмилл, Кэрри Фишер, Макс фон Сюдов, Энди Серкис
    Описание: Через тридцать лет после гибели Дарта Вейдера и Императора галактика по-прежнему в опасности. Государственное образование Первый Орден во главе с их таинственным верховным лидером Сноуком и его правой рукой Кайло Реном идёт по стопам Империи, пытаясь захватить всю власть. В это нелёгкое время судьба сводит юную девушку Рей и бывшего штурмовика Первого Ордена Финна с героями времён войны с Империей — Ханом Соло, Чубаккой и генералом Леей. Вместе они должны дать бой Первому Ордену, однако настаёт тот момент, когда становится очевидно, что лишь джедаи могут остановить Сноука и Кайло Рена. И в галактике в живых остаётся только один…

    Качество видео: BDRip-AVC (исходник - BDRemux|Star.Wars.Episode.VII.The.Force.Awakens.2015.REMUX.1080p.BluRay.AVC.DTS-HD.MA7.1-iFT)
    Формат видео: MKV
    Видео: x264, 1008x420 (2.40:1), 23,976 fps, ~2133 kbps, 0.210 bit/pixel
    Аудио 1: 48 kHz, AC3 2 ch (L,R), ~192 kbps [русский]
    Аудио 2: 48 kHz, AC3 Dolby Digital, 3/2 (L,C,R,l,r) + LFE ch, ~448 kbps [английский]
    Формат субтитров: softsub (SRT)
    *Реклама выпилена, поэтому в 5-ти местах, где она была (секунд по 10) дубляжа нет - оригинал, перевод форс. субтитрами
    MediaInfo | x264 log
    Format : Matroska
    Format version : Version 4 / Version 2
    File size : 2.73 GiB
    Duration : 2h 18mn
    Overall bit rate : 2 829 Kbps
    Movie name : Star Wars: The Force Awakens (2015) :: AFM ::
    Encoded date : UTC 2016-03-25 12:03:30
    Writing application : mkvmerge v8.3.0 ('Over the Horizon') 32bit
    Writing library : libebml v1.3.1 + libmatroska v1.4.2
    Video
    ID : 1
    Format : AVC
    Format/Info : Advanced Video Codec
    Format profile : High@L4.1
    Format settings, CABAC : Yes
    Format settings, ReFrames : 11 frames
    Codec ID : V_MPEG4/ISO/AVC
    Duration : 2h 18mn
    Bit rate : 2 133 Kbps
    Width : 1 008 pixels
    Height : 420 pixels
    Display aspect ratio : 2.40:1
    Frame rate mode : Constant
    Frame rate : 23.976 fps
    Color space : YUV
    Chroma subsampling : 4:2:0
    Bit depth : 8 bits
    Scan type : Progressive
    Bits/(Pixel*Frame) : 0.210
    Stream size : 2.06 GiB (75%)
    Title : BDRip by AFM [RuTracker.org]
    Writing library : x264 core 148 r2665+53 6629127 t_mod_Custom [8-bit@all X86_64]
    Encoding settings : cabac=1 / ref=11 / deblock=1:-1:-1 / analyse=0x3:0x113 / me=umh / subme=11 / psy=1 / fade_compensate=0.00 / psy_rd=1.00:0.00 / mixed_ref=1 / me_range=32 / chroma_me=1 / trellis=2 / 8x8dct=1 / cqm=0 / deadzone=21,11 / fast_pskip=0 / chroma_qp_offset=-2 / threads=6 / lookahead_threads=1 / sliced_threads=0 / nr=0 / decimate=1 / interlaced=0 / bluray_compat=0 / constrained_intra=0 / fgo=0 / bframes=13 / b_pyramid=2 / b_adapt=2 / b_bias=0 / direct=1 / weightb=1 / open_gop=0 / weightp=2 / keyint=250 / keyint_min=23 / scenecut=40 / intra_refresh=0 / rc_lookahead=90 / rc=crf / mbtree=1 / crf=18.1000 / qcomp=0.65 / qpmin=0:0:0 / qpmax=69:69:69 / qpstep=4 / vbv_maxrate=50000 / vbv_bufsize=62500 / crf_max=0.0 / nal_hrd=none / filler=0 / ip_ratio=1.33 / aq=3:1.00 / aq-sensitivity=10.00 / aq-factor=1.00:1.00:1.00 / aq2=0 / aq3=0
    Language : English
    Default : Yes
    Forced : No
    Audio #1
    ID : 2
    Format : AC-3
    Format/Info : Audio Coding 3
    Mode extension : CM (complete main)
    Format settings, Endianness : Big
    Codec ID : A_AC3
    Duration : 2h 18mn
    Bit rate mode : Constant
    Bit rate : 192 Kbps
    Channel(s) : 2 channels
    Channel positions : Front: L R
    Sampling rate : 48.0 KHz
    Compression mode : Lossy
    Stream size : 190 MiB (7%)
    Title : Dub [line] AC3 2.0 ~192 kbps
    Language : Russian
    Default : Yes
    Forced : No
    Audio #2
    ID : 3
    Format : AC-3
    Format/Info : Audio Coding 3
    Mode extension : CM (complete main)
    Format settings, Endianness : Big
    Codec ID : A_AC3
    Duration : 2h 18mn
    Bit rate mode : Constant
    Bit rate : 448 Kbps
    Channel(s) : 6 channels
    Channel positions : Front: L C R, Side: L R, LFE
    Sampling rate : 48.0 KHz
    Compression mode : Lossy
    Stream size : 443 MiB (16%)
    Title : Original, AC3 5.1 ~448 kbps
    Language : English
    Default : No
    Forced : No
    Text #1
    ID : 4
    Format : UTF-8
    Codec ID : S_TEXT/UTF8
    Codec ID/Info : UTF-8 Plain Text
    Language : Russian
    Default : Yes
    Forced : Yes
    Text #2
    ID : 5
    Format : UTF-8
    Codec ID : S_TEXT/UTF8
    Codec ID/Info : UTF-8 Plain Text
    Language : Russian
    Default : No
    Forced : No
    Text #3
    ID : 6
    Format : UTF-8
    Codec ID : S_TEXT/UTF8
    Codec ID/Info : UTF-8 Plain Text
    Language : English
    Default : No
    Forced : No
    Menu
    00:00:00.000 : en:Chapter 01
    00:00:09.259 : en:Chapter 02
    00:01:43.061 : en:Chapter 03
    00:03:51.856 : en:Chapter 04
    00:06:12.288 : en:Chapter 05
    00:09:33.948 : en:Chapter 06
    00:10:43.559 : en:Chapter 07
    00:12:35.713 : en:Chapter 08
    00:13:39.693 : en:Chapter 09
    00:14:48.220 : en:Chapter 10
    00:16:45.921 : en:Chapter 11
    00:18:04.583 : en:Chapter 12
    00:19:21.535 : en:Chapter 13
    00:21:26.618 : en:Chapter 14
    00:24:03.650 : en:Chapter 15
    00:26:47.022 : en:Chapter 16
    00:29:54.667 : en:Chapter 17
    00:31:49.324 : en:Chapter 18
    00:35:51.774 : en:Chapter 19
    00:36:40.615 : en:Chapter 20
    00:37:45.513 : en:Chapter 21
    00:40:19.250 : en:Chapter 22
    00:43:39.199 : en:Chapter 23
    00:45:29.560 : en:Chapter 24
    00:49:22.918 : en:Chapter 25
    00:51:19.951 : en:Chapter 26
    00:54:13.750 : en:Chapter 27
    00:59:48.793 : en:Chapter 28
    01:04:16.060 : en:Chapter 29
    01:08:37.238 : en:Chapter 30
    01:11:07.221 : en:Chapter 31
    01:15:16.386 : en:Chapter 32
    01:16:49.896 : en:Chapter 33
    01:19:37.522 : en:Chapter 34
    01:20:56.893 : en:Chapter 35
    01:25:36.172 : en:Chapter 36
    01:32:12.568 : en:Chapter 37
    01:35:29.014 : en:Chapter 38
    01:36:34.955 : en:Chapter 39
    01:39:28.629 : en:Chapter 40
    01:41:29.958 : en:Chapter 41
    01:42:57.504 : en:Chapter 42
    01:45:00.002 : en:Chapter 43
    01:50:33.710 : en:Chapter 44
    01:53:39.771 : en:Chapter 45
    01:55:22.165 : en:Chapter 46
    01:58:05.453 : en:Chapter 47
    02:01:05.591 : en:Chapter 48
    02:02:32.678 : en:Chapter 49
    02:07:07.578 : en:Chapter 50
    02:18:06.444 : en:Chapter 51

    x264

    x264 [info]: frame I:1564 Avg QP:14.46 size: 74345
    x264 [info]: frame P:44564 Avg QP:18.08 size: 22718
    x264 [info]: frame B:152553 Avg QP:20.69 size: 7453
    x264 [info]: consecutive B-frames: 2.8% 2.9% 8.3% 21.0% 19.0% 33.6% 6.5% 2.0% 1.4% 0.7% 0.6% 0.2% 0.7% 0.4%
    x264 [info]: mb I I16..4: 5.1% 68.8% 26.1%
    x264 [info]: mb P I16..4: 1.2% 11.2% 2.7% P16..4: 31.5% 37.0% 11.8% 0.0% 0.0% skip: 4.6%
    x264 [info]: mb B I16..4: 0.1% 1.6% 0.4% B16..8: 36.9% 20.7% 3.3% direct: 5.1% skip:31.9% L0:43.3% L1:45.6% BI:11.1%
    x264 [info]: 8x8 transform intra:73.5% inter:61.6%
    x264 [info]: coded y,uvDC,uvAC intra: 84.1% 86.5% 63.4% inter: 24.9% 21.3% 6.1%
    x264 [info]: i16 v,h,dc,p: 23% 14% 5% 58%
    x264 [info]: i8 v,h,dc,ddl,ddr,vr,hd,vl,hu: 11% 7% 5% 10% 14% 14% 14% 12% 13%
    x264 [info]: i4 v,h,dc,ddl,ddr,vr,hd,vl,hu: 26% 6% 5% 8% 12% 11% 12% 9% 11%
    x264 [info]: i8c dc,h,v,p: 36% 24% 19% 21%
    x264 [info]: Weighted P-Frames: Y:97.7% UV:6.0%
    x264 [info]: ref P L0: 45.9% 9.9% 17.3% 6.8% 5.4% 3.9% 3.4% 1.9% 1.8% 1.6% 1.7% 0.4% 0.0%
    x264 [info]: ref B L0: 74.9% 11.2% 5.3% 2.6% 1.9% 1.5% 1.2% 0.7% 0.4% 0.2%
    x264 [info]: ref B L1: 92.9% 7.1%
    x264 [info]: kb/s:2187.20

    Скриншоты

    с названием

    15:15 торрент перезалит - добавлена оригинальная дорога и субтитры.
    Скачать .torrent

    Скачать торрент-файл бесплатно и на максимальной скорости!

    Как скачивать? · Что такое торрент? · Рейтинг и ограничения

    !ВНИМАНИЕ!
    Сайт не распространяет и не хранит электронные версии произведений, а занимается лишь лишь предоставлением доступа к создаваемому пользователями каталогу ссылок на торрент-файлы, которые содержат только списки хеш-сумм, убедительная просьба с жалобами обращаться напрямую к пользователю. Файлы для обмена на трекере предоставлены пользователями сайта, и администрация не несёт ответственности за их содержание. Просьба не заливать файлы, защищенные авторскими правами, а также файлы нелегального содержания!


    _________________
    [Профиль] [ЛС]
    Показать сообщения:    
    Ответить на тему

    Текущее время: Сегодня, в 18:33

    Часовой пояс: GMT + 2



    Вы не можете начинать темы
    Вы не можете отвечать на сообщения
    Вы не можете редактировать свои сообщения
    Вы не можете удалять свои сообщения
    Вы не можете голосовать в опросах
    Вы не можете прикреплять файлы к сообщениям
    Вы не можете скачивать файлы