BitTorrentTracker PerecTracker.org
BitTorrentTracker PerecTracker.org
    
Регистрация  ·  Вход
 
 · 
Забыли пароль?

  • 5-я волна / The 5th Wave (Дж. Блэйксон / J. Blakeson) [2016, США, Фантастика, боевик, триллер, приключения, WEBRip] Dub (Line)

    Ответить на тему
     
    Автор Сообщение

    rechyn

    Создавать темы 25-Мар-2016 13:39

           

    [Цитировать]

    -5-я волна / The 5th Wave-Страна: США
    Жанр: Фантастика, боевик, триллер, приключения
    Год выпуска: 2016
    Продолжительность: 01:47:46-Перевод: Профессиональный (дублированный) Line
    Cубтитры: нет
    Режиссер: Дж. Блэйксон / J. Blakeson-В ролях: Хлоя Грейс Морец, Ник Дж. Робинсон, Рон Ливингстон, Мэгги Сифф, Алекс Роу, Мария Белло, Майка Монро, Лив Шрайбер, Закари Артур, Тони Револори
    -Описание: Первая волна оставила за собой мглу. От второй успели убежать только самые везучие. Но едва ли можно назвать везучими тех, кто уцелел после третьей. А четвертая волна стерла все человеческие законы, взамен же установила свой, один-единственный: хочешь жить — не верь никому. И вот уже накатывает пятая волна…-Доп. информация: Без рекламы.--Качество видео: WEBRip
    Формат видео: AVI
    Видео: 720x304 (2.35:1), 25fps, XviD MPEG-4, ~ 1434 Kbps, 0.262 bit/pixel
    Аудио: 48 kHz, AC3 Dolby Digital, 2/0 (L,R) ch, ~320 kbps-

    MediaInfo

    General
    Complete name : D:\Фильмы\5ya.volna.avi
    Format : AVI
    Format/Info : Audio Video Interleave
    File size : 1.33 GiB
    Duration : 1h 47mn
    Overall bit rate : 1 763 Kbps
    Movie name : 5_ja.Volna.2016.D.WEBRip_by_Twi7ter
    Director : Twi7ter
    Genre : Fantasy/Action/Thriller/Adventure
    Writing application : VirtualDubMod 1.5.10.3 (build 2550/release)
    Original source form/Name : Movie
    Video
    ID : 0
    Format : MPEG-4 Visual
    Format profile : Advanced Simple@L5
    Format settings, BVOP : 2
    Format settings, QPel : No
    Format settings, GMC : No warppoints
    Format settings, Matrix : Default (H.263)
    Muxing mode : Packed bitstream
    Codec ID : XVID
    Codec ID/Hint : XviD
    Duration : 1h 47mn
    Bit rate : 1 433 Kbps
    Width : 720 pixels
    Height : 304 pixels
    Display aspect ratio : 2.35:1
    Frame rate : 25.000 fps
    Color space : YUV
    Chroma subsampling : 4:2:0
    Bit depth : 8 bits
    Scan type : Progressive
    Compression mode : Lossy
    Bits/(Pixel*Frame) : 0.262
    Stream size : 1.08 GiB (81%)
    Writing library : XviD 66
    Audio
    ID : 1
    Format : AC-3
    Format/Info : Audio Coding 3
    Mode extension : CM (complete main)
    Format settings, Endianness : Big
    Codec ID : 2000
    Duration : 1h 47mn
    Bit rate mode : Constant
    Bit rate : 320 Kbps
    Channel(s) : 2 channels
    Channel positions : Front: L R
    Sampling rate : 48.0 KHz
    Frame rate : 31.250 fps (1536 spf)
    Compression mode : Lossy
    Stream size : 247 MiB (18%)
    Alignment : Split accross interleaves
    Interleave, duration : 40 ms (1.00 video frame)
    Interleave, preload duratio : 500 ms

    -

    Скриншот c названием фильма

    Скриншоты

    -
    Скачать .torrent

    Скачать торрент-файл бесплатно и на максимальной скорости!

    Как скачивать? · Что такое торрент? · Рейтинг и ограничения

    !ВНИМАНИЕ!
    Сайт не распространяет и не хранит электронные версии произведений, а занимается лишь лишь предоставлением доступа к создаваемому пользователями каталогу ссылок на торрент-файлы, которые содержат только списки хеш-сумм, убедительная просьба с жалобами обращаться напрямую к пользователю. Файлы для обмена на трекере предоставлены пользователями сайта, и администрация не несёт ответственности за их содержание. Просьба не заливать файлы, защищенные авторскими правами, а также файлы нелегального содержания!


    _________________
    [Профиль] [ЛС]
    Показать сообщения:    
    Ответить на тему

    Текущее время: Сегодня, в 12:18

    Часовой пояс: GMT + 2



    Вы не можете начинать темы
    Вы не можете отвечать на сообщения
    Вы не можете редактировать свои сообщения
    Вы не можете удалять свои сообщения
    Вы не можете голосовать в опросах
    Вы не можете прикреплять файлы к сообщениям
    Вы не можете скачивать файлы