BitTorrentTracker PerecTracker.org
BitTorrentTracker PerecTracker.org
    
Регистрация  ·  Вход
 
 · 
Забыли пароль?

  • Отель Люкс / Hotel Lux (Леандер Хаусманн / Leander Haußmann) [2011, Германия, комедия, исторический, BDRip] MVO + Sub Rus + original Ger

    Ответить на тему
     
    Автор Сообщение

    Light

    Создавать темы 25-Мар-2016 13:39

           

    [Цитировать]

    Отель Люкс / Hotel Lux
    Страна: Германия
    Жанр: комедия, исторический
    Год выпуска: 2011
    Продолжительность: 01:46:27
    Перевод: Профессиональный (многоголосый закадровый)
    Cубтитры: русские
    Оригинальная дорожка: немецкий

    Режиссер: Леандер Хаусманн / Leander Haußmann
    В ролях: Михаэль Хербиг, Юрген Фогель, Текла Рютен, Александр Сендерович, Юрай Кукура, Фридрих Карл Преторус, Томас Тиме, Себастьян Бломберг, Аксель Вандтке, Штеффи Кюнерт
    Описание: В 1938 году после возмутившей нацистские власти пародии на Гитлера аполитичный комик, пародист и артист кабаре Ханс Цайсиг вынужден бежать из Германии. Вместо манящих его Америки и Голливуда ему приходится довольствоваться советским паспортом и Москвой. Там он оказывается в легендарном отеле Люкс, месте сбора членов Коминтерна со всех стран мира.
    Здесь, однако, его приключения только начинаются. Актера принимают за личного астролога Гитлера, и он быстро понимает, что попал из огня да в полымя. В отеле Люкс Ханс также встречает свою подругу Фриду и бывшего партнера по сцене Майера, все еще остающихся убежденными коммунистами. Так для трех героев идеалистов начинается незабываемое приключение между любовью и смертью.

    Качество видео: BDRip
    Формат видео: AVI
    Видео: 720x304 (2.37:1), 24 fps, XviD MPEG-4 ~2088 kbps avg, 0.40 bit/pixel
    Аудио: 48 kHz, AC3 Dolby Digital, 3/2 (L,C,R,l,r) + LFE ch, ~384 kbps - многоголосый
    Аудио: 48 kHz, AC3 Dolby Digital, 3/2 (L,C,R,l,r) + LFE ch, ~448 kbps - оригинал

    MediaInfo

    Общее
    Полное имя : H:\Hotel.Lux.2011.bdrip_[2.18]_[teko]\Hotel.Lux.2011.bdrip_[2.18].avi
    Формат : AVI
    Формат/Информация : Audio Video Interleave
    Профиль формата : OpenDML
    Размер файла : 2,18 Гбайт
    Продолжительность : 1 ч. 46 м.
    Общий поток : 2928 Кбит/сек
    Программа кодирования : VirtualDubMod 1.5.10.3 | www.virtualdub-fr.org || (build 2550/release)
    Библиотека кодирования : VirtualDubMod build 2550/release
    Видео
    Идентификатор : 0
    Формат : MPEG-4 Visual
    Профиль формата : Advanced Simple@L5
    Параметр BVOP формата : 2
    Параметр QPel формата : Нет
    Параметр GMC формата : Без точки перехода
    Параметр матрицы формата : Выборочная
    Идентификатор кодека : XVID
    Идентификатор кодека/Подсказка : XviD
    Продолжительность : 1 ч. 46 м.
    Битрейт : 2078 Кбит/сек
    Ширина : 720 пикселей
    Высота : 304 пикселя
    Соотношение сторон : 2,35:1
    Частота кадров : 24,000 кадра/сек
    Цветовое пространство : YUV
    Субдискретизация насыщенности : 4:2:0
    Битовая глубина : 8 бит
    Тип развёртки : Прогрессивная
    Метод сжатия : С потерями
    Бит/(Пиксели*Кадры) : 0.396
    Размер потока : 1,54 Гбайт (71%)
    Библиотека кодирования : XviD 73
    Аудио #1
    Идентификатор : 1
    Формат : AC-3
    Формат/Информация : Audio Coding 3
    Расширение режима : CM (complete main)
    Параметр Endianness формата : Big
    Идентификатор кодека : 2000
    Продолжительность : 1 ч. 46 м.
    Вид битрейта : Постоянный
    Битрейт : 384 Кбит/сек
    Каналы : 6 каналов
    Расположение каналов : Front: L C R, Side: L R, LFE
    Частота : 48,0 КГц
    Битовая глубина : 16 бит
    Метод сжатия : С потерями
    Размер потока : 292 Мбайт (13%)
    Выравнивание : Разделение по промежуткам
    Продолжительность промежутка : 42 мс. (1,00 видеокадр)
    Время предзагрузки промежутка : 500 мс.
    Аудио #2
    Идентификатор : 2
    Формат : AC-3
    Формат/Информация : Audio Coding 3
    Расширение режима : CM (complete main)
    Параметр Endianness формата : Big
    Идентификатор кодека : 2000
    Продолжительность : 1 ч. 46 м.
    Вид битрейта : Постоянный
    Битрейт : 448 Кбит/сек
    Каналы : 6 каналов
    Расположение каналов : Front: L C R, Side: L R, LFE
    Частота : 48,0 КГц
    Битовая глубина : 16 бит
    Метод сжатия : С потерями
    Размер потока : 341 Мбайт (15%)
    Выравнивание : Разделение по промежуткам
    Продолжительность промежутка : 42 мс. (1,00 видеокадр)
    Время предзагрузки промежутка : 500 мс.

    Скриншоты

    Релиз группы:

    -
    -
    Скачать .torrent

    Скачать торрент-файл бесплатно и на максимальной скорости!

    Как скачивать? · Что такое торрент? · Рейтинг и ограничения

    !ВНИМАНИЕ!
    Сайт не распространяет и не хранит электронные версии произведений, а занимается лишь лишь предоставлением доступа к создаваемому пользователями каталогу ссылок на торрент-файлы, которые содержат только списки хеш-сумм, убедительная просьба с жалобами обращаться напрямую к пользователю. Файлы для обмена на трекере предоставлены пользователями сайта, и администрация не несёт ответственности за их содержание. Просьба не заливать файлы, защищенные авторскими правами, а также файлы нелегального содержания!


    _________________
    [Профиль] [ЛС]
    Показать сообщения:    
    Ответить на тему

    Текущее время: Сегодня, в 12:18

    Часовой пояс: GMT + 2



    Вы не можете начинать темы
    Вы не можете отвечать на сообщения
    Вы не можете редактировать свои сообщения
    Вы не можете удалять свои сообщения
    Вы не можете голосовать в опросах
    Вы не можете прикреплять файлы к сообщениям
    Вы не можете скачивать файлы