BitTorrentTracker PerecTracker.org
BitTorrentTracker PerecTracker.org
    
Регистрация  ·  Вход
 
 · 
Забыли пароль?

  • Выживший / The Revenant (Алехандро Гонсалес Иньярриту) [2015, Триллер, драма, приключения, вестерн , WEB-DLRip 1080p] [iTunes , ESAREV , Ukrainian , English] + [Subs Rus , Eng , Ukr]

    Ответить на тему
     
    Автор Сообщение

    Враг Нароода

    Создавать темы 25-Мар-2016 11:26

           

    [Цитировать]

    --Выживший / The Revenant----[Год выпуска:2015
    Выпущено:США, Anonymous Content, Appian Way, New Regency Pictures, RatPac Entertainment, Soho VFX
    Жанр: Триллер, драма, приключения, вестерн
    Продолжительность: 02:36:20
    Озвучка 1: Дублированное [iTunes] -Русский
    Озвучка 2: Авторское одноголосое (закадровое) [ESAREV-Есарев] -Русский
    Озвучка 3: Дублированное [iTunes] - Ukrainian -Украинский
    Озвучка 4: Профессиональный многоголосый - English- Английский - Оригинал
    Субтитры: : Russian (Forced, iTunes), Russian (iTunes), Ukrainian (Forced, iTunes), Ukrainian (iTunes), English (Forced, iTunes), English (iTunes) ----Режиссер: Алехандро Гонсалес Иньярриту--В ролях: Леонардо ДиКаприо, Том Харди, Донал Глисон, Уилл Поултер, Пол Андерсон, Лукас Хаас, Брэд Картер, Кристоффер Йонер, Брендан Флетчер, Хавьер Ботет, Кори Грим, Роберт Молони, Винсент Леклерк, Джошуа Бёрдж, МакКалеб Барнетт, Рэй Чейз, Тимоти Лайл, Эдриан Макморран, Дэйв Бурчилл, Майкл Виллар
    -- Посреди опасных красот первозданной природы американского Дикого Запада разворачивается знаменитая Пушная бойня за пятнадцать тюков звериных шкур между охотниками-трапперами и воинственными племенами местных индейцев. Хью Гласс, один из уцелевших трапперов, подвергается жесткому порицанию со стороны огромной медведицы, вследствие чего теряет дар речи и способность самостоятельно передвигаться. Оставленный в качестве сиделки Джон Фицджеральд тихонько прикапывает тело умирающего среди березок и уходит в направлении мексиканской границы. Но смерти вопреки Гласс выживает в тяжелейших условиях и начинает свой длинный и тернистый путь к священной мести Фицджеральду.
    ----Качество :WEB-DLRip-AVC 1080p
    Формат: MKV
    Видео кодек: H264
    Видео: 4496Кбит/сек,1916х792(2.40.1),в 23.976кадр/сек,AVC(High@L4)(CABAC/45Ref Frames)
    Аудио Кодек:AC3
    Аудио #1:AC3 , 384 Kbps, 48.0 KHz, 6 ch- Дублированное [iTunes] -Русский
    Аудио #2:AC3 , 448 Kbps, 48.0 KHz, 6 ch- Авторское одноголосое - [ESAREV-Есарев]-Русский
    Аудио #3:AАC , 160Kbps, 48.0 KHz, 2 ch- Дублированное- Ukrainian -Украинский
    Аудио #4: AАC, 160 Kbps, 48.0 KHz,2 ch - - English- Английский - Оригинал--

    Доп. информация:

    Звуковая дорожка сделана путем наложения чистого голоса озвучивателей на центральный канал оригинальной дорожки. Качество идентично звуковой дорожке.
    --

    MediaInfo сезона

    Общее
    Уникальный идентификатор : 237948837468218121143048751878910896511 (0xB303477524B97D028A2097E28D19E97F)
    Полное имя : E:\К ИНО\ВЫЖИВШИЙ\THE_REVENANT_2015_Rus_Ukr_Eng[iTunes Russia_ESAREV]_x264_N.В_WEB-DLRip_(1080p)\THE_REVENANT_2015_Rus_Ukr_Eng[iTunes Russia_ESAREV]_x264_N.В_WEB-DLRip_(1080p).mkv
    Формат : Matroska
    Версия формата : Version 4 / Version 2
    Размер файла : 6,19 Гбайт
    Продолжительность : 2 ч. 36 м.
    Общий поток : 5643 Кбит/сек
    Название фильма : THE_REVENANT_2015_Rus_Ukr_Eng[iTunes Russia_ESAREV]_x264_N.В_WEB-DLRip_(1080p)
    Дата кодирования : UTC 2016-03-23 08:19:21
    Программа кодирования : mkvmerge v8.9.0 ('Father Daughter') 64bit
    Библиотека кодирования : libebml v1.3.3 + libmatroska v1.4.4
    Видео
    Идентификатор : 1
    Формат : AVC
    Формат/Информация : Advanced Video Codec
    Профиль формата : High@L4
    Параметр CABAC формата : Да
    Параметр ReFrames формата : 5 кадров
    Идентификатор кодека : V_MPEG4/ISO/AVC
    Продолжительность : 2 ч. 36 м.
    Битрейт : 4496 Кбит/сек
    Ширина : 1916 пикселей
    Высота : 792 пикселя
    Соотношение сторон : 2,40:1
    Режим частоты кадров : Постоянный
    Частота кадров : 23,976 (23976/1000) кадра/сек
    Цветовое пространство : YUV
    Субдискретизация насыщенности : 4:2:0
    Битовая глубина : 8 бит
    Тип развёртки : Прогрессивная
    Бит/(Пиксели*Кадры) : 0.124
    Размер потока : 4,93 Гбайт (80%)
    Язык : English
    Default : Да
    Forced : Нет
    Цветовой диапазон : Limited
    Основные цвета : BT.709
    Характеристики трансфера : BT.709
    Коэффициенты матрицы : BT.709
    Аудио #1
    Идентификатор : 8
    Формат : AC-3
    Формат/Информация : Audio Coding 3
    Расширение режима : CM (complete main)
    Параметр Endianness формата : Big
    Идентификатор кодека : A_AC3
    Продолжительность : 2 ч. 36 м.
    Вид битрейта : Постоянный
    Битрейт : 384 Кбит/сек
    Каналы : 6 каналов
    Расположение каналов : Front: L C R, Side: L R, LFE
    Частота : 48,0 КГц
    Частота кадров : 31,250 кадров/сек (1536 spf)
    Метод сжатия : С потерями
    Размер потока : 429 Мбайт (7%)
    Заголовок : DUB
    Язык : Russian
    Default : Да
    Forced : Нет
    Аудио #2
    Идентификатор : 9
    Формат : AC-3
    Формат/Информация : Audio Coding 3
    Расширение режима : CM (complete main)
    Параметр Endianness формата : Big
    Идентификатор кодека : A_AC3
    Продолжительность : 2 ч. 36 м.
    Вид битрейта : Постоянный
    Битрейт : 448 Кбит/сек
    Каналы : 6 каналов
    Расположение каналов : Front: L C R, Side: L R, LFE
    Частота : 48,0 КГц
    Частота кадров : 31,250 кадров/сек (1536 spf)
    Метод сжатия : С потерями
    Размер потока : 501 Мбайт (8%)
    Заголовок : AVO [ESAREV]
    Язык : Russian
    Default : Нет
    Forced : Нет
    Аудио #3
    Идентификатор : 10
    Формат : AAC
    Формат/Информация : Advanced Audio Codec
    Профиль формата : LC
    Идентификатор кодека : A_AAC
    Продолжительность : 2 ч. 36 м.
    Битрейт : 159 Кбит/сек
    Каналы : 2 канала
    Расположение каналов : Front: L R
    Частота : 48,0 КГц
    Частота кадров : 46,875 кадров/сек (1024 spf)
    Метод сжатия : С потерями
    Размер потока : 177 Мбайт (3%)
    Заголовок : AAC 2.0 @ 160 kbps - DUB, iTunes
    Язык : Ukrainian
    Default : Нет
    Forced : Нет
    Аудио #4
    Идентификатор : 11
    Формат : AAC
    Формат/Информация : Advanced Audio Codec
    Профиль формата : LC
    Идентификатор кодека : A_AAC
    Продолжительность : 2 ч. 36 м.
    Битрейт : 156 Кбит/сек
    Каналы : 2 канала
    Расположение каналов : Front: L R
    Частота : 48,0 КГц
    Частота кадров : 46,875 кадров/сек (1024 spf)
    Метод сжатия : С потерями
    Размер потока : 175 Мбайт (3%)
    Заголовок : AAC 2.0 @ 160 kbps
    Язык : English
    Default : Нет
    Forced : Нет
    Текст #1
    Идентификатор : 2
    Формат : UTF-8
    Идентификатор кодека : S_TEXT/UTF8
    Идентификатор кодека/Информация : UTF-8 Plain Text
    Продолжительность : 2 ч. 35 м.
    Битрейт : 5 бит/сек
    Count of elements : 146
    Размер потока : 6,20 Кбайт (0%)
    Заголовок : forced
    Язык : Russian
    Default : Да
    Forced : Нет
    Текст #2
    Идентификатор : 3
    Формат : UTF-8
    Идентификатор кодека : S_TEXT/UTF8
    Идентификатор кодека/Информация : UTF-8 Plain Text
    Продолжительность : 2 ч. 35 м.
    Битрейт : 38 бит/сек
    Count of elements : 847
    Размер потока : 43,2 Кбайт (0%)
    Язык : Russian
    Default : Нет
    Forced : Нет
    Текст #3
    Идентификатор : 4
    Формат : UTF-8
    Идентификатор кодека : S_TEXT/UTF8
    Идентификатор кодека/Информация : UTF-8 Plain Text
    Продолжительность : 2 ч. 35 м.
    Битрейт : 5 бит/сек
    Count of elements : 146
    Размер потока : 5,91 Кбайт (0%)
    Заголовок : forced
    Язык : Ukrainian
    Default : Нет
    Forced : Нет
    Текст #4
    Идентификатор : 5
    Формат : UTF-8
    Идентификатор кодека : S_TEXT/UTF8
    Идентификатор кодека/Информация : UTF-8 Plain Text
    Продолжительность : 2 ч. 35 м.
    Битрейт : 39 бит/сек
    Count of elements : 846
    Размер потока : 44,7 Кбайт (0%)
    Язык : Ukrainian
    Default : Нет
    Forced : Нет
    Текст #5
    Идентификатор : 6
    Формат : UTF-8
    Идентификатор кодека : S_TEXT/UTF8
    Идентификатор кодека/Информация : UTF-8 Plain Text
    Продолжительность : 2 ч. 20 м.
    Битрейт : 3 бит/сек
    Count of elements : 135
    Размер потока : 3,69 Кбайт (0%)
    Заголовок : forced
    Язык : English
    Default : Нет
    Forced : Нет
    Текст #6
    Идентификатор : 7
    Формат : UTF-8
    Идентификатор кодека : S_TEXT/UTF8
    Идентификатор кодека/Информация : UTF-8 Plain Text
    Продолжительность : 2 ч. 20 м.
    Битрейт : 25 бит/сек
    Count of elements : 834
    Размер потока : 26,8 Кбайт (0%)
    Язык : English
    Default : Нет
    Forced : Нет
    Меню
    00:00:00.000 : en:1
    00:05:04.846 : en:2
    00:07:58.311 : en:3
    00:13:18.964 : en:4
    00:21:10.685 : en:5
    00:28:21.657 : en:6
    00:37:07.766 : en:7
    00:44:00.345 : en:8
    00:48:14.974 : en:9
    00:51:42.264 : en:10
    00:56:51.031 : en:11
    00:59:50.752 : en:12
    01:03:31.764 : en:13
    01:11:52.431 : en:14
    01:16:36.131 : en:15
    01:21:22.375 : en:16
    01:28:31.137 : en:17
    01:37:29.967 : en:18
    01:48:44.641 : en:19
    01:53:08.780 : en:20
    01:59:05.928 : en:21
    02:02:56.700 : en:22
    02:15:45.260 : en:23
    02:22:51.019 : en:24
    --

    Скриншоты

    --------Релиз от: Nikolai.Baranov & PIRATIYA --------
    Скачать .torrent

    Скачать торрент-файл бесплатно и на максимальной скорости!

    Как скачивать? · Что такое торрент? · Рейтинг и ограничения

    !ВНИМАНИЕ!
    Сайт не распространяет и не хранит электронные версии произведений, а занимается лишь лишь предоставлением доступа к создаваемому пользователями каталогу ссылок на торрент-файлы, которые содержат только списки хеш-сумм, убедительная просьба с жалобами обращаться напрямую к пользователю. Файлы для обмена на трекере предоставлены пользователями сайта, и администрация не несёт ответственности за их содержание. Просьба не заливать файлы, защищенные авторскими правами, а также файлы нелегального содержания!


    _________________

    Легко быть оптимистом, когда судьба не валит с ног тяжелыми ударами, а лишь иногда легонько шлепает по заднице.
    [Профиль] [ЛС]

    -746

    Создавать темы 26-Мар-2016 21:05 (спустя 1 день 9 часов)

           

    Топик был перенесен из форума Фильмы 2011-2015 в форум Зарубежное кино (HD Video)


    -sasha2006

    _________________
    Как бы ты высоко не летал, не забывай, с кем ты ползал..
     
    Показать сообщения:    
    Ответить на тему

    Текущее время: Сегодня, в 08:10

    Часовой пояс: GMT + 2



    Вы не можете начинать темы
    Вы не можете отвечать на сообщения
    Вы не можете редактировать свои сообщения
    Вы не можете удалять свои сообщения
    Вы не можете голосовать в опросах
    Вы не можете прикреплять файлы к сообщениям
    Вы не можете скачивать файлы