BitTorrentTracker PerecTracker.org
BitTorrentTracker PerecTracker.org
    
Регистрация  ·  Вход
 
 · 
Забыли пароль?

  • Превосходство / Transcendence (Уолли Пфистер / Wally Pfister) [2014, США, Великобритания, Китай, Фантастика, триллер, драма, детектив, HDRip] Dub (НТВ+)

    Ответить на тему
     
    Автор Сообщение

    Light

    Создавать темы 25-Мар-2016 09:34

           

    [Цитировать]

    Превосходство / Transcendence--Страна: США, Великобритания, Китай
    Жанр: Фантастика, триллер, драма, детектив
    Продолжительность: 01:59:16
    Год выпуска: 2014
    -Перевод: Профессиональный (дублированный) | НТВ+ / Пифагор
    Субтитры: нет
    Режиссёр: Уолли Пфистер / Wally Pfister
    -В ролях:
    Джонни Депп, Ребекка Холл, Пол Беттани, Киллиан Мёрфи, Кейт Мара, Коул Хаузер, Морган Фриман, Клифтон Коллинз мл., Кори Хардрикт, Фальк Хеншел
    -Описание:
    Выдающийся исследователь в области изучения искусственного интеллекта Доктор Уилл Кастер работает над созданием компьютера, который сможет собрать в себе все знания и опыт, накопленные человечеством. Достаточно спорные эксперименты, проводимые Уиллом, прославили его, и в то же время сделали основной целью радикальной анти-технологической группировки. Экстремисты делают все возможное, чтобы остановить его.
    Однако в своих попытках уничтожить Уилла они добиваются обратного и становятся невольными участниками становления его абсолютного превосходства. Для его жены Эвелин и лучшего друга Макса Вотерса, тоже ученых-исследователей, встает вопрос должны ли они продолжать этот эксперимент. Их худшие опасения претворяются в жизнь, когда жажда знаний Уилла переходит в неконтролируемую жажду власти…
    -Сэмпл: https://www.sendspace.com/file/a6tgjw-Качество: HDRip - Исходник (Спасибо Talian70)
    Формат: AVI
    Видео: 688x288 (2.39:1), 23.976 fps, XviD build 50 ~735 kbps avg, 0.16 bit/pixel
    Аудио: 48 kHz, MPEG Layer 3, 2 ch, ~128.00 kbps avg
    -

    Отчёт MediaInfo

    General
    Complete name : C:\Users\Максим\Desktop\Prevoshodstvo.2014.HDRip.polkera.RG.avi
    Format : AVI
    Format/Info : Audio Video Interleave
    File size : 745 MiB
    Duration : 1h 59mn
    Overall bit rate : 873 Kbps
    Writing application : VirtualDubMod 1.5.10.2 (build 2540/release)
    Writing library : VirtualDubMod build 2540/release
    Video
    Format : MPEG-4 Visual
    Format profile : Streaming Video@L1
    Format settings, BVOP : Yes
    Format settings, QPel : No
    Format settings, GMC : No warppoints
    Format settings, Matrix : Custom
    Codec ID : XVID
    Codec ID/Hint : XviD
    Duration : 1h 59mn
    Bit rate : 736 Kbps
    Width : 688 pixels
    Height : 288 pixels
    Display aspect ratio : 2.35
    Frame rate : 23.976 fps
    Resolution : 24 bits
    Colorimetry : 4:2:0
    Scan type : Progressive
    Bits/(Pixel*Frame) : 0.155
    Stream size : 628 MiB (84%)
    Writing library : XviD 1.2.1 (UTC 2008-12-04)
    Audio
    Format : MPEG Audio
    Format version : Version 1
    Format profile : Layer 3
    Codec ID : 55
    Codec ID/Hint : MP3
    Duration : 1h 59mn
    Bit rate mode : Constant
    Bit rate : 128 Kbps
    Channel(s) : 2 channels
    Sampling rate : 48.0 KHz
    Resolution : 16 bits
    Stream size : 109 MiB (15%)
    Alignment : Aligned on interleaves
    Interleave, duration : 42 ms (1.00 video frame)
    Interleave, preload duration : 504 ms

    -

    Скриншоты

    Скачать .torrent

    Скачать торрент-файл бесплатно и на максимальной скорости!

    Как скачивать? · Что такое торрент? · Рейтинг и ограничения

    !ВНИМАНИЕ!
    Сайт не распространяет и не хранит электронные версии произведений, а занимается лишь лишь предоставлением доступа к создаваемому пользователями каталогу ссылок на торрент-файлы, которые содержат только списки хеш-сумм, убедительная просьба с жалобами обращаться напрямую к пользователю. Файлы для обмена на трекере предоставлены пользователями сайта, и администрация не несёт ответственности за их содержание. Просьба не заливать файлы, защищенные авторскими правами, а также файлы нелегального содержания!


    _________________
    [Профиль] [ЛС]
    Показать сообщения:    
    Ответить на тему

    Текущее время: Сегодня, в 16:34

    Часовой пояс: GMT + 2



    Вы не можете начинать темы
    Вы не можете отвечать на сообщения
    Вы не можете редактировать свои сообщения
    Вы не можете удалять свои сообщения
    Вы не можете голосовать в опросах
    Вы не можете прикреплять файлы к сообщениям
    Вы не можете скачивать файлы