Register  ·  Log in
Forgot password?

  • Хранитель Луны / Mune, le gardien de la lune (Александр Эбоян / Alexandre Heboyan, Бенуа Филиппон / Benoît Philippon) [2014, Франция, Мультфильм, семейный, HDRip] Dub

    Reply to topic
    Author Message


    Post 25-Mar-2016 06:29



    Хранитель Луны / Mune, le gardien de la lune

    «Он не спасет мир. Он спасет пять миров!»
    -Страна: Франция
    Жанр: Мультфильм, семейный
    Продолжительность: 01:21:26
    Год выпуска: 2014-Перевод: Профессиональный (дублированный)
    Русские субтитры: нет-Режиссёр: Александр Эбоян / Alexandre Heboyan, Бенуа Филиппон / Benoît Philippon-Роли озвучивали: Омар Си, Изиа Ижлен, Майкл Грегорио, Шафик Ахмад, Бенуа Аллемане, Шеннон Арчи, Федор Аткин, Джошуа Дж. Баллард, Дэмиен Буассо, Эммануэль Кюртиль-Описание: На диковинной планете, где смена дня и ночи осуществляется вручную, юного фавна Мьюна неожиданно избирают хранителем Луны. Но к своему ужасу, он почти сразу теряет ее! Воспользовавшись этим, царь подземного мира Некрос крадет и гасит Солнце. Теперь, чтобы спасти планету, Мьюн вместе с отважной девочкой из воска Глим и заносчивым Сохоном, хранителем Солнца, должны отправиться в удивительное и опасное путешествие.- l -Качество: HDRip
    Формат: AVI
    Видео: 720x304 (2.35:1), 25.000 fps, XviD build 50, 1946 Kbps
    Аудио: 48 kHz, AC3 Dolby Digital, 3/2 (L,C,R,l,r) + LFE ch, 448 Kbps
    Субтитры: отсутствуют--



    General Complete name : Lunatiki.2015.D.HDRip.1400Mb.avi Format : AVI Format/Info : Audio Video Interleave File size : 1.37 GiB Duration : 1h 21mn Overall bit rate : 2 404 Kbps Writing application : VirtualDubMod (build 2540/release) Writing library : VirtualDubMod build 2540/release Video #0 ID : 0 Format : MPEG-4 Visual Format profile : Advanced Simple@L5 Format settings, BVOP : 2 Format settings, QPel : No Format settings, GMC : No warppoints Format settings, Matrix : Default (MPEG) Codec ID : XVID Codec ID/Hint : XviD Duration : 1h 21mn Bit rate : 1 946 Kbps Width : 720 pixels Height : 304 pixels Display aspect ratio : 2.35:1 Frame rate : 25.000 fps Color space : YUV Chroma subsampling : 4:2:0 Bit depth : 8 bits Scan type : Progressive Compression mode : Lossy Bits/(Pixel*Frame) : 0.356 Stream size : 1.11 GiB (81%) Writing library : XviD 1.2.1 (UTC 2008-12-04) Audio #1 ID : 1 Format : AC-3 Format/Info : Audio Coding 3 Mode extension : CM (complete main) Format settings, Endianness : Big Codec ID : 2000 Duration : 1h 21mn Bit rate mode : Constant Bit rate : 448 Kbps Channel(s) : 6 channels Channel positions : Front: L C R, Side: L R, LFE Sampling rate : 48.0 KHz Bit depth : 16 bits Compression mode : Lossy Stream size : 261 MiB (19%) Alignment : Split accross interleaves Interleave, duration : 40 ms (1.00 video frame) Interleave, preload duration : 500 ms
    Download .torrent

    Download free and at maximum speed!

    How to Download? · What is a torrent? · Ratings and Limitations

    The site does not extend and does not store electronic(digital) versions of products, and only gives access to a reference catalogue created by users on torrent-files which contain only lists of the hash-sums, the earnest entreaty, with complaints(abuse) to access directly to the user. Files for an exchange on tracker are given by users of a site, and the administration does not bear the responsibility for their maintenance. The request to not fill in the files protected by copyrights, and also files of the illegal maintenance!

    [Profile] [PM]
    Display posts from previous:    
    Reply to topic

    The time now is: Today 16:31

    All times are GMT + 3 Hours

    You cannot post new topics in this forum
    You cannot reply to topics in this forum
    You cannot edit your posts in this forum
    You cannot delete your posts in this forum
    You cannot vote in polls in this forum
    You cannot attach files in this forum
    You cannot download files in this forum