BitTorrentTracker PerecTracker.org
BitTorrentTracker PerecTracker.org
    
Регистрация  ·  Вход
 
 · 
Забыли пароль?

  • Хранитель Луны / Mune, le gardien de la lune (Александр Эбоян / Alexandre Heboyan, Бенуа Филиппон / Benoît Philippon) [2014, Франция, Мультфильм, семейный, HDRip] Dub

    Ответить на тему
     
    Автор Сообщение

    Flirldrerve

    Создавать темы 25-Мар-2016 05:29

           

    [Цитировать]

    Хранитель Луны / Mune, le gardien de la lune

    «Он не спасет мир. Он спасет пять миров!»
    -Страна: Франция
    Жанр: Мультфильм, семейный
    Продолжительность: 01:21:26
    Год выпуска: 2014-Перевод: Профессиональный (дублированный)
    Русские субтитры: нет-Режиссёр: Александр Эбоян / Alexandre Heboyan, Бенуа Филиппон / Benoît Philippon-Роли озвучивали: Омар Си, Изиа Ижлен, Майкл Грегорио, Шафик Ахмад, Бенуа Аллемане, Шеннон Арчи, Федор Аткин, Джошуа Дж. Баллард, Дэмиен Буассо, Эммануэль Кюртиль-Описание: На диковинной планете, где смена дня и ночи осуществляется вручную, юного фавна Мьюна неожиданно избирают хранителем Луны. Но к своему ужасу, он почти сразу теряет ее! Воспользовавшись этим, царь подземного мира Некрос крадет и гасит Солнце. Теперь, чтобы спасти планету, Мьюн вместе с отважной девочкой из воска Глим и заносчивым Сохоном, хранителем Солнца, должны отправиться в удивительное и опасное путешествие.- l -Качество: HDRip
    Формат: AVI
    Видео: 720x304 (2.35:1), 25.000 fps, XviD build 50, 1946 Kbps
    Аудио: 48 kHz, AC3 Dolby Digital, 3/2 (L,C,R,l,r) + LFE ch, 448 Kbps
    Субтитры: отсутствуют--

    Скриншоты

    MediaInfo

    General Complete name : Lunatiki.2015.D.HDRip.1400Mb.avi Format : AVI Format/Info : Audio Video Interleave File size : 1.37 GiB Duration : 1h 21mn Overall bit rate : 2 404 Kbps Writing application : VirtualDubMod 1.5.10.2 (build 2540/release) Writing library : VirtualDubMod build 2540/release Video #0 ID : 0 Format : MPEG-4 Visual Format profile : Advanced Simple@L5 Format settings, BVOP : 2 Format settings, QPel : No Format settings, GMC : No warppoints Format settings, Matrix : Default (MPEG) Codec ID : XVID Codec ID/Hint : XviD Duration : 1h 21mn Bit rate : 1 946 Kbps Width : 720 pixels Height : 304 pixels Display aspect ratio : 2.35:1 Frame rate : 25.000 fps Color space : YUV Chroma subsampling : 4:2:0 Bit depth : 8 bits Scan type : Progressive Compression mode : Lossy Bits/(Pixel*Frame) : 0.356 Stream size : 1.11 GiB (81%) Writing library : XviD 1.2.1 (UTC 2008-12-04) Audio #1 ID : 1 Format : AC-3 Format/Info : Audio Coding 3 Mode extension : CM (complete main) Format settings, Endianness : Big Codec ID : 2000 Duration : 1h 21mn Bit rate mode : Constant Bit rate : 448 Kbps Channel(s) : 6 channels Channel positions : Front: L C R, Side: L R, LFE Sampling rate : 48.0 KHz Bit depth : 16 bits Compression mode : Lossy Stream size : 261 MiB (19%) Alignment : Split accross interleaves Interleave, duration : 40 ms (1.00 video frame) Interleave, preload duration : 500 ms
    Скачать .torrent

    Скачать торрент-файл бесплатно и на максимальной скорости!

    Как скачивать? · Что такое торрент? · Рейтинг и ограничения

    !ВНИМАНИЕ!
    Сайт не распространяет и не хранит электронные версии произведений, а занимается лишь лишь предоставлением доступа к создаваемому пользователями каталогу ссылок на торрент-файлы, которые содержат только списки хеш-сумм, убедительная просьба с жалобами обращаться напрямую к пользователю. Файлы для обмена на трекере предоставлены пользователями сайта, и администрация не несёт ответственности за их содержание. Просьба не заливать файлы, защищенные авторскими правами, а также файлы нелегального содержания!


    _________________
    [Профиль] [ЛС]
    Показать сообщения:    
    Ответить на тему

    Текущее время: Сегодня, в 06:01

    Часовой пояс: GMT + 2



    Вы не можете начинать темы
    Вы не можете отвечать на сообщения
    Вы не можете редактировать свои сообщения
    Вы не можете удалять свои сообщения
    Вы не можете голосовать в опросах
    Вы не можете прикреплять файлы к сообщениям
    Вы не можете скачивать файлы