BitTorrentTracker PerecTracker.org
BitTorrentTracker PerecTracker.org
    
Регистрация  ·  Вход
 
 · 
Забыли пароль?

  • [ATV3] Кунг-фу Панда 3 / Kung Fu Panda 3 (Алессандро Карлони, Дженнифер Ю / Alessandro Carloni, Jennifer Yuh) [2016, США, Китай , Мультфильм, боевик, комедия, приключения, семейный, WEB-DL, HD (1080p)] DUB + Original + sub (rus, eng, ukr)

    Ответить на тему
     
    Автор Сообщение

    Flirldrerve

    Создавать темы 25-Мар-2016 01:21

           

    [Цитировать]

    Кунг-фу Панда 3 / Kung Fu Panda 3
    «Притяженья больше нет»
    7.575 / 10 7.50 / 10
    -Год выпуска: 2016
    Страна: США, Китай
    Жанр: Мультфильм, боевик, комедия, приключения, семейный
    Продолжительность: 01:35:12
    Перевод: Дублированный (iTunes)
    Оригинальная аудиодорожка: Есть
    Cубтитры: Русские форсированные, Русские, Английские, Украинские
    Режиссёр: Дженнифер Ю
    Сценарий: Джонатан Айбел, Гленн Бергер
    Продюсер: Мелисса Кобб, Джонатан Айбел, Гленн Бергер
    Композитор: Ханс Циммер
    Художник: Рэймонд Зибах, Макс Боас
    Монтаж: Клер Де Шеню
    В ролях: Джек Блэк, Брайан Крэнстон, Дастин Хоффман, Анджелина Джоли, Дж.К. Симмонс, Джеки Чан, Сет Роген, Люси Лью, Дэвид Кросс, Кейт Хадсон
    Бюджет: $145 000 000
    Сборы в США: $138 491 939
    Сборы в мире: + $263 293 982 = $401 785 921
    Сборы в России: $13 376 780
    Мировая премьера: 16 января 2016
    Премьера (РФ): 28 января 2016, «Двадцатый Век Фокс СНГ»
    Описание: Воссоединившись со своим давно потерянным отцом, По отправляется в тайный рай для панд, где его ожидает встреча с множеством веселых сородичей. Однако вскоре злодей Кай начинает зачистку — он уничтожает кунг-фу мастеров по всему Китаю.-Качество исходника: WEB-DL 1080p (BlueBird)
    Качество: WEB-DL
    Тип: HD (1080p)
    Контейнер: M4V
    Видео: H.264, 1916x812, 2.35:1, 4 563 Kbps, 23.976 fps
    Аудио 1: Русский/Дублированный (iTunes), AAC / 2.0 / 157 Kbps / 48.0 KHz
    Аудио 2: Английский/Оригинальная дорожка , AAC / 2.0 / 157 Kbps / 48.0 KHz
    Аудио 3: Русский/Дублированный (iTunes), AC-3 / 5.1 / 384 Kbps / 48.0 KHz
    Субтитры 1: Русские форсированные
    Субтитры 2: Русские полные
    Субтитры 3: Английские полные
    Субтитры 4: Украинские полные
    -

    iTunes Meta Tags

    Sort Name: Kung Fu Panda 3
    XID: Apple:vendor_id:2016-692865
    contentID: 1071972907
    Copyright: © 2015 DreamWorks Animation, L.L.C. All rights reserved.
    Screenwriters: Джонатан Айбел, Гленн Бергер
    Producers: Мелисса Кобб, Джонатан Айбел, Гленн Бергер
    Director: Алессандро Карлони, Дженнифер Ю
    Cast: Джек Блэк, Брайан Крэнстон, Дастин Хоффман, Анджелина Джоли, Дж.К. Симмонс, Джеки Чан, Сет Роген, Люси Лью, Дэвид Кросс, Кейт Хадсон
    Studio: DreamWorks
    Rating: 3
    Long Description: Воссоединившись со своим давно потерянным отцом, По отправляется в тайный рай для панд, где его ожидает встреча с множеством веселых сородичей. Однако вскоре злодей Кай начинает зачистку - он уничтожает кунг-фу мастеров по всему Китаю.
    По предстоит сделать невозможное - обучить боевому искусству деревню, полную его веселых, неуклюжих собратьев, и тем самым превратить их в отряд кунг-фу панд.
    Description: Воссоединившись со своим давно потерянным отцом, По отправляется в тайный рай для панд, где его ожидает встреча с множеством веселых сородичей. Однако вскоре злодей Кай начинает зачистку - он уничтожает кунг-фу мастеров по всему Китаю...
    Release Date: 2016-01-16T08:00:00Z
    Genre: Action & Adventure
    Artist: Alessandro Carloni & Jennifer Yuh Nelson
    Name: Kung Fu Panda 3

    MediaInfo

    General
    Complete name : /Users/imac/HandBrake/Kung.Fu.Panda.3.WEB.DL.1080p.m4v
    Format : MPEG-4
    Codec ID : M4V  (M4V /M4A /mp42/isom)
    File size : 3.50 GiB
    Duration : 1h 35mn
    Overall bit rate mode : Variable
    Overall bit rate : 5 271 Kbps
    Movie name : Kung Fu Panda 3
    Performer : Alessandro Carloni & Jennifer Yuh Nelson
    Director : Алессандро Карлони / Дженнифер Ю
    Actor : Джек Блэк / Брайан Крэнстон / Дастин Хоффман / Анджелина Джоли / Дж.К. Симмонс / Джеки Чан / Сет Роген / Люси Лью / Дэвид Кросс / Кейт Хадсон
    Screenplay by : Джонатан Айбел / Гленн Бергер
    Producer : Мелисса Кобб / Джонатан Айбел / Гленн Бергер
    Production studio : DreamWorks
    Genre : Action & Adventure
    ContentType : Short Film
    Description : Воссоединившись со своим давно потерянным отцом, По отправляется в тайный рай для панд, где его ожидает встреча с множеством веселых сородичей. Однако вскоре злодей Кай начинает зачистку - он уничтожает кунг-фу мастеров по всему Китаю...
    Recorded date : UTC 2016-01-16 08:00:00
    Encoded date : UTC 2016-03-24 19:27:03
    Tagged date : UTC 2016-03-24 19:28:45
    Copyright : © 2015 DreamWorks Animation, L.L.C. All rights reserved.
    Cover : Yes
    Rating : None
    Title/Sort : Kung Fu Panda 3
    LongDescription : Воссоединившись со своим давно потерянным отцом, По отправляется в тайный рай для панд, где его ожидает встреча с множеством веселых сородичей. Однако вскоре злодей Кай начинает зачистку - он уничтожает кунг-фу мастеров по всему Китаю. / По предстоит сделать невозможное - обучить боевому искусству деревню, полную его веселых, неуклюжих собратьев, и тем самым превратить их в отряд кунг-фу панд.
    AppleStoreCatalogID : 1071972907
    Vendor : Apple:vendor_id:2016-692865
    ContentRating : mpaa|PG|200|
    Video #1
    ID : 1
    Format : AVC
    Format/Info : Advanced Video Codec
    Format profile : High@L4
    Format settings, CABAC : Yes
    Format settings, ReFrames : 5 frames
    Codec ID : avc1
    Codec ID/Info : Advanced Video Coding
    Duration : 1h 35mn
    Bit rate : 4 563 Kbps
    Width : 1 916 pixels
    Height : 812 pixels
    Display aspect ratio : 2.35:1
    Frame rate mode : Variable
    Frame rate : 23.976 fps
    Minimum frame rate : 12.346 fps
    Maximum frame rate : 500.000 fps
    Color space : YUV
    Chroma subsampling : 4:2:0
    Bit depth : 8 bits
    Scan type : Progressive
    Bits/(Pixel*Frame) : 0.122
    Stream size : 3.03 GiB (87%)
    Title : Main Program
    Language : English
    Encoded date : UTC 2016-03-24 19:27:03
    Tagged date : UTC 2016-03-24 19:27:10
    Color range : Limited
    Color primaries : BT.709
    Transfer characteristics : BT.709
    Matrix coefficients : BT.709
    Menus : 9,10
    Video #2
    ID : 10
    Format : JPEG
    Codec ID : jpeg
    Duration : 1h 35mn
    Bit rate mode : Variable
    Bit rate : 1 535 bps
    Width : 640 pixels
    Height : 271 pixels
    Display aspect ratio : 2.35:1
    Frame rate mode : Variable
    Frame rate : 0.004 fps
    Minimum frame rate : 0.002 fps
    Maximum frame rate : 0.009 fps
    Color space : YUV
    Chroma subsampling : 4:2:0
    Bit depth : 8 bits
    Compression mode : Lossy
    Bits/(Pixel*Frame) : 2.213
    Stream size : 1.10 MiB (0%)
    Title : Chapter Images
    Language : English
    Default : No
    Encoded date : UTC 2016-03-24 19:27:18
    Tagged date : UTC 2016-03-24 19:27:19
    Menu For : 1
    Audio #1
    ID : 2
    Format : AAC
    Format/Info : Advanced Audio Codec
    Format profile : LC
    Codec ID : 40
    Duration : 1h 34mn
    Bit rate mode : Variable
    Bit rate : 157 Kbps
    Maximum bit rate : 250 Kbps
    Channel(s) : 2 channels
    Channel positions : Front: L R
    Sampling rate : 48.0 KHz
    Frame rate : 46.875 fps (1024 spf)
    Compression mode : Lossy
    Stream size : 106 MiB (3%)
    Title : Russian Stereo
    Language : Russian
    Default : Yes
    Alternate group : 1
    Encoded date : UTC 2016-03-24 19:27:03
    Tagged date : UTC 2016-03-24 19:27:11
    Fallback From : 4
    Subtitles : 5,6
    Audio #2
    ID : 3
    Format : AAC
    Format/Info : Advanced Audio Codec
    Format profile : LC
    Codec ID : 40
    Duration : 1h 34mn
    Bit rate mode : Variable
    Bit rate : 157 Kbps
    Maximum bit rate : 243 Kbps
    Channel(s) : 2 channels
    Channel positions : Front: L R
    Sampling rate : 48.0 KHz
    Frame rate : 46.875 fps (1024 spf)
    Compression mode : Lossy
    Stream size : 107 MiB (3%)
    Title : English Stereo
    Language : English
    Default : No
    Alternate group : 1
    Encoded date : UTC 2016-03-24 19:27:03
    Tagged date : UTC 2016-03-24 19:27:11
    Audio #3
    ID : 4
    Format : AC-3
    Format/Info : Audio Coding 3
    Mode extension : CM (complete main)
    Format settings, Endianness : Big
    Codec ID : ac-3
    Duration : 1h 34mn
    Bit rate mode : Constant
    Bit rate : 384 Kbps
    Channel(s) : 6 channels
    Channel positions : Front: L C R, Side: L R, LFE
    Sampling rate : 48.0 KHz
    Frame rate : 31.250 fps (1536 spf)
    Bit depth : 16 bits
    Compression mode : Lossy
    Stream size : 261 MiB (7%)
    Title : Russian DD 5.1
    Language : Russian
    Default : Inherited From: 2
    Alternate group : 1
    Encoded date : UTC 2016-03-24 19:27:03
    Tagged date : UTC 2016-03-24 19:27:10
    Fallback To : 2
    Subtitles : 5,6
    Text #1
    ID : 5
    Format : Timed Text
    Muxing mode : sbtl
    Codec ID : tx3g
    Duration : 1h 34mn
    Bit rate mode : Variable
    Bit rate : 0 bps
    Stream size : 63.0 Bytes (0%)
    Title : Russian Forced
    Language : Russian
    Default : Yes
    Forced : Yes
    Alternate group : 2
    Encoded date : UTC 2016-03-24 19:27:03
    Tagged date : UTC 2016-03-24 19:27:10
    Subtitles For : 2,4
    Full Alternative : 6
    Text #2
    ID : 6
    Format : Timed Text
    Muxing mode : sbtl
    Codec ID : tx3g
    Duration : 1h 34mn
    Bit rate mode : Variable
    Bit rate : 83 bps
    Stream size : 57.7 KiB (0%)
    Title : Russian Full-length
    Language : Russian
    Default : No
    Forced : No
    Alternate group : 2
    Encoded date : UTC 2016-03-24 19:27:03
    Tagged date : UTC 2016-03-24 19:27:10
    Subtitles For : 2,4
    Forced Alternative : 5
    Text #3
    ID : 7
    Format : Timed Text
    Muxing mode : sbtl
    Codec ID : tx3g
    Duration : 1h 22mn
    Bit rate mode : Variable
    Bit rate : 63 bps
    Stream size : 38.1 KiB (0%)
    Title : English Full-length
    Language : English
    Default : No
    Forced : No
    Alternate group : 2
    Encoded date : UTC 2016-03-24 19:27:03
    Tagged date : UTC 2016-03-24 19:27:10
    Text #4
    ID : 8
    Format : Timed Text
    Muxing mode : sbtl
    Codec ID : tx3g
    Duration : 1h 34mn
    Bit rate mode : Variable
    Bit rate : 87 bps
    Stream size : 60.2 KiB (0%)
    Title : Ukrainian Full-length
    Language : Ukrainian
    Default : No
    Forced : No
    Alternate group : 2
    Encoded date : UTC 2016-03-24 19:27:03
    Tagged date : UTC 2016-03-24 19:27:10
    Menu #1
    00:00:00.000 : 1
    00:05:20.737 : 2
    00:08:09.197 : 3
    00:09:58.973 : 4
    00:12:24.994 : 5
    00:15:23.172 : 6
    00:19:07.187 : 7
    00:24:38.351 : 8
    00:30:16.564 : 9
    00:33:52.947 : 10
    00:36:17.216 : 11
    00:39:54.600 : 12
    00:43:31.608 : 13
    00:46:44.801 : 14
    00:51:40.138 : 15
    00:56:03.568 : 16
    00:59:47.124 : 17
    01:02:10.267 : 18
    01:05:25.920 : 19
    01:10:15.793 : 20
    01:14:05.856 : 21
    01:17:05.535 : 22
    01:20:33.743 : 23
    01:24:20.135 : 24
    Menu #2
    ID : 9
    Codec ID : text
    Duration : 1h 35mn
    Language : English
    Encoded date : UTC 2016-03-24 19:27:11
    Tagged date : UTC 2016-03-24 19:27:11
    Menu For : 1
    00:00:00.000 : 1
    00:05:20.737 : 2
    00:08:09.197 : 3
    00:09:58.973 : 4
    00:12:24.994 : 5
    00:15:23.172 : 6
    00:19:07.187 : 7
    00:24:38.351 : 8
    00:30:16.564 : 9
    00:33:52.947 : 10
    00:36:17.216 : 11
    00:39:54.600 : 12
    00:43:31.608 : 13
    00:46:44.801 : 14
    00:51:40.138 : 15
    00:56:03.568 : 16
    00:59:47.124 : 17
    01:02:10.267 : 18
    01:05:25.920 : 19
    01:10:15.793 : 20
    01:14:05.856 : 21
    01:17:05.535 : 22
    01:20:33.743 : 23
    01:24:20.135 : 24
    Bit rate mode : VBR

    Скриншоты

    -

    Релиз подготовлен для просмотра на Apple TV, iPad, iPhone, iPod Touch.
    Для просмотра данного релиза на компьютере с ОС Windows рекомендуется использовать VLC media player
    Скачать .torrent

    Скачать торрент-файл бесплатно и на максимальной скорости!

    Как скачивать? · Что такое торрент? · Рейтинг и ограничения

    !ВНИМАНИЕ!
    Сайт не распространяет и не хранит электронные версии произведений, а занимается лишь лишь предоставлением доступа к создаваемому пользователями каталогу ссылок на торрент-файлы, которые содержат только списки хеш-сумм, убедительная просьба с жалобами обращаться напрямую к пользователю. Файлы для обмена на трекере предоставлены пользователями сайта, и администрация не несёт ответственности за их содержание. Просьба не заливать файлы, защищенные авторскими правами, а также файлы нелегального содержания!


    _________________
    [Профиль] [ЛС]
    Показать сообщения:    
    Ответить на тему

    Текущее время: Сегодня, в 06:15

    Часовой пояс: GMT + 2



    Вы не можете начинать темы
    Вы не можете отвечать на сообщения
    Вы не можете редактировать свои сообщения
    Вы не можете удалять свои сообщения
    Вы не можете голосовать в опросах
    Вы не можете прикреплять файлы к сообщениям
    Вы не можете скачивать файлы