BitTorrentTracker PerecTracker.org
BitTorrentTracker PerecTracker.org
    
Регистрация  ·  Вход
 
 · 
Забыли пароль?

  • Крысиные бега / Rat Race (Джерри Цукер / Jerry Zucker) [2001, Канада, США, комедия, приключения, HDTV 1080i] DVO (SDI Media)

    Ответить на тему
     
    Автор Сообщение

    Light

    Создавать темы 25-Мар-2016 01:21

           

    [Цитировать]

    Крысиные бега / Rat Race
    Страна: Канада, США
    Жанр: комедия, приключения
    Год выпуска: 2001
    Продолжительность: 01:47:27
    Перевод: Профессиональный (двухголосый закадровый) SDI Media
    Cубтитры: нет
    Оригинальная аудиодорожка: нет
    Режиссер: Джерри Цукер / Jerry Zucker
    В ролях: Роуэн Эткинсон, Кьюба Гудинг мл., Джон Ловиц, Джон Клиз, Вупи Голдберг, Сет Грин, Брекин Мейер, Эми Смарт, Винс Вьелуф, Ланей Чэпман
    Описание: Владелец крупнейшего казино Лас-Вегаса решает, что его самым богатым клиентам нужно нечто особенное. Он готовит для них нелегальный тотализатор — «Крысиные бега». Участники забега — обычные люди, случайно выбранные из толпы. Они получают шанс разбогатеть: кто первым доберется из Лас-Вегаса до захолустного городка Силвер-сити, тот получит 2 млн.$, спрятанных в ячейке камеры хранения. Никто из соискателей и не догадывается, что за каждым их шагом следит хозяин казино и его клиенты, сделавшие собственные ставки на победителя...
    Семпл: http://sendfile.su/1218057
    Тип релиза: HDTV 1080i
    Контейнер: TS
    Видео: 1920x1080 (16:9), 25.000 fps, AVC, ~8372 Kbps, 0.162 bits/pixel
    Аудио: Russian, 48.0 KHz, AC3, 2 ch, 192 Kbps

    MediaInfo

    General
    ID : 1 (0x1)
    Complete name : Rat Race 2001 TV1000MegahitHD DVO SDI-Media.ts
    Format : MPEG-TS
    File size : 6.76 GiB
    Duration : 1h 47mn
    Overall bit rate mode : Variable
    Overall bit rate : 9 011 Kbps
    Video
    ID : 302 (0x12E)
    Menu ID : 1 (0x1)
    Format : AVC
    Format/Info : Advanced Video Codec
    Format profile : High@L4
    Format settings, CABAC : Yes
    Format settings, ReFrames : 4 frames
    Codec ID : 27
    Duration : 1h 47mn
    Bit rate : 8 372 Kbps
    Width : 1 920 pixels
    Height : 1 080 pixels
    Display aspect ratio : 16:9
    Frame rate : 25.000 fps
    Standard : Component
    Color space : YUV
    Chroma subsampling : 4:2:0
    Bit depth : 8 bits
    Scan type : Interlaced
    Scan type, store method : Separated fields
    Scan order : Top Field First
    Bits/(Pixel*Frame) : 0.162
    Stream size : 6.28 GiB (93%)
    Color range : Limited
    Color primaries : BT.709
    Transfer characteristics : BT.709
    Matrix coefficients : BT.709
    Audio
    ID : 422 (0x1A6)
    Menu ID : 1 (0x1)
    Format : AC-3
    Format/Info : Audio Coding 3
    Mode extension : CM (complete main)
    Format settings, Endianness : Big
    Codec ID : 6
    Duration : 1h 47mn
    Bit rate mode : Constant
    Bit rate : 192 Kbps
    Channel(s) : 2 channels
    Channel positions : Front: L R
    Sampling rate : 48.0 KHz
    Frame rate : 31.250 fps (1536 spf)
    Compression mode : Lossy
    Stream size : 148 MiB (2%)
    Language : Russian

    Скриншоты

    Скачать .torrent

    Скачать торрент-файл бесплатно и на максимальной скорости!

    Как скачивать? · Что такое торрент? · Рейтинг и ограничения

    !ВНИМАНИЕ!
    Сайт не распространяет и не хранит электронные версии произведений, а занимается лишь лишь предоставлением доступа к создаваемому пользователями каталогу ссылок на торрент-файлы, которые содержат только списки хеш-сумм, убедительная просьба с жалобами обращаться напрямую к пользователю. Файлы для обмена на трекере предоставлены пользователями сайта, и администрация не несёт ответственности за их содержание. Просьба не заливать файлы, защищенные авторскими правами, а также файлы нелегального содержания!


    _________________
    [Профиль] [ЛС]
    Показать сообщения:    
    Ответить на тему

    Текущее время: Сегодня, в 12:49

    Часовой пояс: GMT + 2



    Вы не можете начинать темы
    Вы не можете отвечать на сообщения
    Вы не можете редактировать свои сообщения
    Вы не можете удалять свои сообщения
    Вы не можете голосовать в опросах
    Вы не можете прикреплять файлы к сообщениям
    Вы не можете скачивать файлы