Register  ·  Log in
Forgot password?

  • Крысиные бега / Rat Race (Джерри Цукер / Jerry Zucker) [2001, Канада, США, комедия, приключения, HDTV 1080i] DVO (SDI Media)

    Reply to topic
    Author Message


    Post 25-Mar-2016 02:21



    Крысиные бега / Rat Race
    Страна: Канада, США
    Жанр: комедия, приключения
    Год выпуска: 2001
    Продолжительность: 01:47:27
    Перевод: Профессиональный (двухголосый закадровый) SDI Media
    Cубтитры: нет
    Оригинальная аудиодорожка: нет
    Режиссер: Джерри Цукер / Jerry Zucker
    В ролях: Роуэн Эткинсон, Кьюба Гудинг мл., Джон Ловиц, Джон Клиз, Вупи Голдберг, Сет Грин, Брекин Мейер, Эми Смарт, Винс Вьелуф, Ланей Чэпман
    Описание: Владелец крупнейшего казино Лас-Вегаса решает, что его самым богатым клиентам нужно нечто особенное. Он готовит для них нелегальный тотализатор — «Крысиные бега». Участники забега — обычные люди, случайно выбранные из толпы. Они получают шанс разбогатеть: кто первым доберется из Лас-Вегаса до захолустного городка Силвер-сити, тот получит 2 млн.$, спрятанных в ячейке камеры хранения. Никто из соискателей и не догадывается, что за каждым их шагом следит хозяин казино и его клиенты, сделавшие собственные ставки на победителя...
    Тип релиза: HDTV 1080i
    Контейнер: TS
    Видео: 1920x1080 (16:9), 25.000 fps, AVC, ~8372 Kbps, 0.162 bits/pixel
    Аудио: Russian, 48.0 KHz, AC3, 2 ch, 192 Kbps


    ID : 1 (0x1)
    Complete name : Rat Race 2001 TV1000MegahitHD DVO SDI-Media.ts
    Format : MPEG-TS
    File size : 6.76 GiB
    Duration : 1h 47mn
    Overall bit rate mode : Variable
    Overall bit rate : 9 011 Kbps
    ID : 302 (0x12E)
    Menu ID : 1 (0x1)
    Format : AVC
    Format/Info : Advanced Video Codec
    Format profile : High@L4
    Format settings, CABAC : Yes
    Format settings, ReFrames : 4 frames
    Codec ID : 27
    Duration : 1h 47mn
    Bit rate : 8 372 Kbps
    Width : 1 920 pixels
    Height : 1 080 pixels
    Display aspect ratio : 16:9
    Frame rate : 25.000 fps
    Standard : Component
    Color space : YUV
    Chroma subsampling : 4:2:0
    Bit depth : 8 bits
    Scan type : Interlaced
    Scan type, store method : Separated fields
    Scan order : Top Field First
    Bits/(Pixel*Frame) : 0.162
    Stream size : 6.28 GiB (93%)
    Color range : Limited
    Color primaries : BT.709
    Transfer characteristics : BT.709
    Matrix coefficients : BT.709
    ID : 422 (0x1A6)
    Menu ID : 1 (0x1)
    Format : AC-3
    Format/Info : Audio Coding 3
    Mode extension : CM (complete main)
    Format settings, Endianness : Big
    Codec ID : 6
    Duration : 1h 47mn
    Bit rate mode : Constant
    Bit rate : 192 Kbps
    Channel(s) : 2 channels
    Channel positions : Front: L R
    Sampling rate : 48.0 KHz
    Frame rate : 31.250 fps (1536 spf)
    Compression mode : Lossy
    Stream size : 148 MiB (2%)
    Language : Russian


    Download .torrent

    Download free and at maximum speed!

    How to Download? · What is a torrent? · Ratings and Limitations

    The site does not extend and does not store electronic(digital) versions of products, and only gives access to a reference catalogue created by users on torrent-files which contain only lists of the hash-sums, the earnest entreaty, with complaints(abuse) to access directly to the user. Files for an exchange on tracker are given by users of a site, and the administration does not bear the responsibility for their maintenance. The request to not fill in the files protected by copyrights, and also files of the illegal maintenance!

    [Profile] [PM]
    Display posts from previous:    
    Reply to topic

    The time now is: Today 03:38

    All times are GMT + 3 Hours

    You cannot post new topics in this forum
    You cannot reply to topics in this forum
    You cannot edit your posts in this forum
    You cannot delete your posts in this forum
    You cannot vote in polls in this forum
    You cannot attach files in this forum
    You cannot download files in this forum