BitTorrentTracker PerecTracker.org
BitTorrentTracker PerecTracker.org
    
Регистрация  ·  Вход
 
 · 
Забыли пароль?

  • Риццоли и Айлс / Rizzoli & Isles / Сезон: 6 / Серии: 1-18 из 18 (Билл Хабер) [2015, драма, детектив, WEB-DL 720p] MVO (NewStudio) + Original

    Ответить на тему
     
    Автор Сообщение

    rechyn

    Создавать темы 24-Мар-2016 23:00

           

    [Цитировать]

    Риццоли и Айлс / Rizzoli & Isles
    Год выпуска: 2015
    Страна: США
    Жанр: драма, детектив
    Продолжительность: ~ 42 мин.
    Перевод: Профессиональный (многоголосый закадровый) NewStudio
    Режиссёр: Билл Хабер
    В ролях: Саша Александр, Энджи Хэрмон, Лоррейн Бракко, Брюс МакГилл, Дженнифер Холлэнд, Джэйсон Блэр, Том Бауэр, Джордан Бриджес, Мариса Рамирез, Кристал Рид
    Описание: Главная героиня сериала — Джейн Риццоли, бостонский детектив, которая вместе с патологоанатомом Морой Айлс, раскрывает преступления.
    Ссылка на предыдущие и альтернативные раздачи: поиск
    Сэмпл: Сэмпл
    Качество: WEB-DL 720p
    Контейнер: MKV
    Видео: AVC, 1280*718 (16:9), 23.976 fps, 3 887 Kbps
    Аудио 1: Russian, AC3, 48.0 KHz, 6 (L,C,R,LFE,Ls,Rs), 384 Kbps
    Аудио 2: English, AC3, 48.0 KHz, 6(L,C,R,LFE,Ls,Rs), 384 Kbps
    Субтитры: отсутствуют

    Список серий

    1. The Platform
    2. Bassholes
    3. Deadly Harvest
    4. Imitation Game
    5. Misconduct Game
    6. Face Value
    7. A Bad Seed Grows
    8. Nice to Meet You, Dr. Isles
    9. Love Taps
    10. Sister Sister
    11. Fake It 'Til You Make It
    12. 5:26
    13. Hide and Seek
    14. Murderjuana
    15. Scared to Death
    16. East Meets West
    17. Bomb Voyage
    18. A Shot in the Dark

    MediaInfo

    General
    Count : 284
    Count of stream of this kind : 1
    Kind of stream : General
    Kind of stream : General
    Stream identifier : 0
    Unique ID : 194085961181484585681904324653936827960
    Unique ID : 194085961181484585681904324653936827960 (0x920398B073FB920BA709E8ADF02C5E38)
    Count of video streams : 1
    Count of audio streams : 2
    Video_Format_List : AVC
    Video_Format_WithHint_List : AVC
    Codecs Video : AVC
    Video_Language_List : English
    Audio_Format_List : AC-3 / AC-3
    Audio_Format_WithHint_List : AC-3 / AC-3
    Audio codecs : AC3 / AC3
    Audio_Language_List : Russian / English
    Complete name : Rizzoli.&.Isles.s06e01.WEBDL.720p.NewStudio.TV.mkv
    File name : Rizzoli.&.Isles.s06e01.WEBDL.720p.NewStudio.TV
    File extension : mkv
    Format : Matroska
    Format : Matroska
    Format/Url : http://packs.matroska.org/
    Format/Extensions usually used : mkv mk3d mka mks
    Commercial name : Matroska
    Format version : Version 2
    Codec : Matroska
    Codec : Matroska
    Codec/Url : http://packs.matroska.org/
    Codec/Extensions usually used : mkv mk3d mka mks
    File size : 1500282929
    File size : 1.40 GiB
    File size : 1 GiB
    File size : 1.4 GiB
    File size : 1.40 GiB
    File size : 1.397 GiB
    Duration : 2534618
    Duration : 42mn 14s
    Duration : 42mn 14s 618ms
    Duration : 42mn 14s
    Duration : 00:42:14.618
    Overall bit rate : 4735334
    Overall bit rate : 4 735 Kbps
    Stream size : 29855732
    Stream size : 28.5 MiB (2%)
    Stream size : 28 MiB
    Stream size : 28 MiB
    Stream size : 28.5 MiB
    Stream size : 28.47 MiB
    Stream size : 28.5 MiB (2%)
    Proportion of this stream : 0.01990
    Encoded date : UTC 2015-06-21 14:41:44
    File last modification date : UTC 2015-07-26 05:34:33
    File last modification date (local) : 2015-07-26 08:34:33
    Writing application : mkvmerge v2.9.9 ('Tutu') built on Nov 25 2009 21:13:32
    Writing library : libebml v0.7.9 + libmatroska v0.8.1
    Writing library : libebml v0.7.9 + libmatroska v0.8.1
    Video
    Count : 272
    Count of stream of this kind : 1
    Kind of stream : Video
    Kind of stream : Video
    Stream identifier : 0
    StreamOrder : 0
    ID : 1
    ID : 1
    Unique ID : 3816495750
    Format : AVC
    Format/Info : Advanced Video Codec
    Format/Url : http://developers.videolan.org/x264.html
    Commercial name : AVC
    Format profile : High@L3.1
    Format settings : 2 Ref Frames
    Format settings, CABAC : No
    Format settings, CABAC : No
    Format settings, ReFrames : 2
    Format settings, ReFrames : 2 frames
    Internet media type : video/H264
    Codec ID : V_MPEG4/ISO/AVC
    Codec ID/Url : http://ffdshow-tryout.sourceforge.net/
    Codec : V_MPEG4/ISO/AVC
    Codec : AVC
    Codec/Family : AVC
    Codec/Info : Advanced Video Codec
    Codec/Url : http://ffdshow-tryout.sourceforge.net/
    Codec profile : High@L3.1
    Codec settings : 2 Ref Frames
    Codec settings, CABAC : No
    Codec_Settings_RefFrames : 2
    Duration : 2534618
    Duration : 42mn 14s
    Duration : 42mn 14s 618ms
    Duration : 42mn 14s
    Duration : 00:42:14.618
    Bit rate : 3873101
    Bit rate : 3 873 Kbps
    Width : 1280
    Width : 1 280 pixels
    Height : 718
    Height : 718 pixels
    Pixel aspect ratio : 1.000
    Display aspect ratio : 1.783
    Display aspect ratio : 16:9
    Frame rate mode : CFR
    Frame rate mode : Constant
    Frame rate : 23.976
    Frame rate : 23.976 fps
    Frame count : 60770
    Resolution : 8
    Resolution : 8 bits
    Colorimetry : 4:2:0
    Color space : YUV
    Chroma subsampling : 4:2:0
    Bit depth : 8
    Bit depth : 8 bits
    Scan type : Progressive
    Scan type : Progressive
    Interlacement : PPF
    Interlacement : Progressive
    Bits/(Pixel*Frame) : 0.176
    Delay : 0
    Delay : 00:00:00.000
    Delay, origin : Container
    Delay, origin : Container
    Stream size : 1227103869
    Stream size : 1.14 GiB (82%)
    Stream size : 1 GiB
    Stream size : 1.1 GiB
    Stream size : 1.14 GiB
    Stream size : 1.143 GiB
    Stream size : 1.14 GiB (82%)
    Proportion of this stream : 0.81792
    Language : en
    Language : English
    Language : English
    Language : en
    Language : eng
    Language : en
    Default : No
    Default : No
    Forced : No
    Forced : No
    colour_description_present : Yes
    Color primaries : BT.709
    Transfer characteristics : BT.709
    Matrix coefficients : BT.709
    Audio #1
    Count : 243
    Count of stream of this kind : 2
    Kind of stream : Audio
    Kind of stream : Audio
    Stream identifier : 0
    Stream identifier : 1
    StreamOrder : 1
    ID : 2
    ID : 2
    Unique ID : 1280263356
    Format : AC-3
    Format/Info : Audio Coding 3
    Commercial name : AC-3
    Mode extension : CM (complete main)
    Format settings, Endianness : Big
    Codec ID : A_AC3
    Codec : AC3
    Codec : AC3
    Codec/Family : AC3
    Codec/Info : Dolby AC3
    Duration : 2534618
    Duration : 42mn 14s
    Duration : 42mn 14s 618ms
    Duration : 42mn 14s
    Duration : 00:42:14.618
    Bit rate mode : CBR
    Bit rate mode : Constant
    Bit rate : 384000
    Bit rate : 384 Kbps
    Channel(s) : 6
    Channel(s) : 6 channels
    Channel positions : Front: L C R, Side: L R, LFE
    Channel positions : 3/2/0.1
    ChannelLayout : L C R LFE Ls Rs
    Sampling rate : 48000
    Sampling rate : 48.0 KHz
    Samples count : 121661664
    Resolution : 16
    Resolution : 16 bits
    Bit depth : 16
    Bit depth : 16 bits
    Compression mode : Lossy
    Compression mode : Lossy
    Delay : 0
    Delay : 00:00:00.000
    Delay, origin : Container
    Delay, origin : Container
    Delay relative to video : 0
    Video0 delay : 0
    Stream size : 121661664
    Stream size : 116 MiB (8%)
    Stream size : 116 MiB
    Stream size : 116 MiB
    Stream size : 116 MiB
    Stream size : 116.0 MiB
    Stream size : 116 MiB (8%)
    Proportion of this stream : 0.08109
    Language : ru
    Language : Russian
    Language : Russian
    Language : ru
    Language : rus
    Language : ru
    Default : Yes
    Default : Yes
    Forced : Yes
    Forced : Yes
    bsid : 8
    dialnorm : -27
    dialnorm/String : -27 dB
    compr : -0.28
    compr/String : -0.28 dB
    acmod : 7
    lfeon : 1
    dialnorm_Average : -27
    dialnorm_Average/String : -27 dB
    dialnorm_Minimum : -27
    dialnorm_Minimum/String : -27 dB
    dialnorm_Maximum : -27
    dialnorm_Maximum/String : -27 dB
    dialnorm_Count : 2
    compr_Average : -0.28
    compr_Average/String : -0.28 dB
    compr_Minimum : -0.28
    compr_Minimum/String : -0.28 dB
    compr_Maximum : -0.28
    compr_Maximum/String : -0.28 dB
    compr_Count : 2
    Audio #2
    Count : 243
    Count of stream of this kind : 2
    Kind of stream : Audio
    Kind of stream : Audio
    Stream identifier : 1
    Stream identifier : 2
    StreamOrder : 2
    ID : 3
    ID : 3
    Unique ID : 1193479060
    Format : AC-3
    Format/Info : Audio Coding 3
    Commercial name : AC-3
    Mode extension : CM (complete main)
    Format settings, Endianness : Big
    Codec ID : A_AC3
    Codec : AC3
    Codec : AC3
    Codec/Family : AC3
    Codec/Info : Dolby AC3
    Duration : 2534618
    Duration : 42mn 14s
    Duration : 42mn 14s 618ms
    Duration : 42mn 14s
    Duration : 00:42:14.618
    Bit rate mode : CBR
    Bit rate mode : Constant
    Bit rate : 384000
    Bit rate : 384 Kbps
    Channel(s) : 6
    Channel(s) : 6 channels
    Channel positions : Front: L C R, Side: L R, LFE
    Channel positions : 3/2/0.1
    ChannelLayout : L C R LFE Ls Rs
    Sampling rate : 48000
    Sampling rate : 48.0 KHz
    Samples count : 121661664
    Resolution : 16
    Resolution : 16 bits
    Bit depth : 16
    Bit depth : 16 bits
    Compression mode : Lossy
    Compression mode : Lossy
    Delay : 0
    Delay : 00:00:00.000
    Delay, origin : Container
    Delay, origin : Container
    Delay relative to video : 0
    Video0 delay : 0
    Stream size : 121661664
    Stream size : 116 MiB (8%)
    Stream size : 116 MiB
    Stream size : 116 MiB
    Stream size : 116 MiB
    Stream size : 116.0 MiB
    Stream size : 116 MiB (8%)
    Proportion of this stream : 0.08109
    Language : en
    Language : English
    Language : English
    Language : en
    Language : eng
    Language : en
    Default : No
    Default : No
    Forced : No
    Forced : No
    bsid : 8
    dialnorm : -27
    dialnorm/String : -27 dB
    compr : -0.28
    compr/String : -0.28 dB
    acmod : 7
    lfeon : 1
    dialnorm_Average : -27
    dialnorm_Average/String : -27 dB
    dialnorm_Minimum : -27
    dialnorm_Minimum/String : -27 dB
    dialnorm_Maximum : -27
    dialnorm_Maximum/String : -27 dB
    dialnorm_Count : 2
    compr_Average : -0.28
    compr_Average/String : -0.28 dB
    compr_Minimum : -0.28
    compr_Minimum/String : -0.28 dB
    compr_Maximum : -0.28
    compr_Maximum/String : -0.28 dB
    compr_Count : 2

    Скриншоты

    Скачать .torrent

    Скачать торрент-файл бесплатно и на максимальной скорости!

    Как скачивать? · Что такое торрент? · Рейтинг и ограничения

    !ВНИМАНИЕ!
    Сайт не распространяет и не хранит электронные версии произведений, а занимается лишь лишь предоставлением доступа к создаваемому пользователями каталогу ссылок на торрент-файлы, которые содержат только списки хеш-сумм, убедительная просьба с жалобами обращаться напрямую к пользователю. Файлы для обмена на трекере предоставлены пользователями сайта, и администрация не несёт ответственности за их содержание. Просьба не заливать файлы, защищенные авторскими правами, а также файлы нелегального содержания!


    _________________
    [Профиль] [ЛС]
    Показать сообщения:    
    Ответить на тему

    Текущее время: Сегодня, в 06:57

    Часовой пояс: GMT + 2



    Вы не можете начинать темы
    Вы не можете отвечать на сообщения
    Вы не можете редактировать свои сообщения
    Вы не можете удалять свои сообщения
    Вы не можете голосовать в опросах
    Вы не можете прикреплять файлы к сообщениям
    Вы не можете скачивать файлы