BitTorrentTracker PerecTracker.org
BitTorrentTracker PerecTracker.org
    
Регистрация  ·  Вход
 
 · 
Забыли пароль?

  • Кунг-фу Панда 3 / Kung Fu Panda 3 (Алессандро Карлони, Дженнифер Ю / Alessandro Carloni, Jennifer Yuh) [2016 г., Мультфильм, боевик, комедия, приключения, семейный, WEB-DLRip-AVC] Dub (iTunes), Sub (Rus/Ukr/Eng)

    Ответить на тему
     
    Автор Сообщение

    Flirldrerve

    Создавать темы 24-Мар-2016 21:16

           

    [Цитировать]

    -Кунг-фу Панда 3
    Kung Fu Panda 3
    -Страна: Китай, США
    Жанр: Мультфильм, боевик, комедия, приключения, семейный
    Продолжительность: 01:35:12
    Год выпуска: 2016
    Перевод: Профессиональный (дублированный) iTunes
    Русские субтитры: есть-Режиссёр: Алессандро Карлони, Дженнифер Ю / Alessandro Carloni, Jennifer Yuh-Роли озвучивали: Михаил Галустян, Александр Новиков, Василиса Эльдарова, Александр Хотченков, Ольга Зубкова-Описание: Воссоединившись со своим давно потерянным отцом, По отправляется в тайный рай для панд, где его ожидает встреча с множеством веселых сородичей. Однако вскоре злодей Кай начинает зачистку - он уничтожает кунг-фу мастеров по всему Китаю. По предстоит сделать невозможное - обучить боевому искусству деревню, полную его веселых, неуклюжих собратьев, и тем самым превратить их в отряд кунг-фу панд.- -Качество: WEB-DLRip-AVC
    Формат: MKV
    Видео: H.264 1024x434(2,35:1), 23,976 fps, х264 ~ 1810 kbps avg, 0.170 bit/pixel
    Аудио: AC3 48 kHz, AC3 Dolby Digital, 3/2 (L,C,R,l,r) + LFE ch, ~384 kbps
    Субтитры: Russian (Forced, iTunes), Ukrainian (iTunes), English (iTunes)-

    Подробные технические данные

    GeneralUnique ID : 246052567743942861508511318071802568555 (0xB91C003528B7FEB280571C7935979F6B)Complete name : D:\Фильмы\Kung Fu Panda 3. 2016.WEB-DLRip-AVC.mkvFormat : MatroskaFormat version : Version 4 / Version 2File size : 1.46 GiBDuration : 1h 35mnOverall bit rate : 2 195 KbpsMovie name : Kung Fu Panda 3. 2016.WEB-DLRip-AVC by Vovan366(ExKinoRay)Encoded date : UTC 2016-03-24 12:44:12Writing application : mkvmerge v8.9.0 ('Father Daughter') 64bitWriting library : libebml v1.3.3 + libmatroska v1.4.4
    VideoID : 1Format : AVCFormat/Info : Advanced Video CodecFormat profile : High@L4.1Format settings, CABAC : YesFormat settings, ReFrames : 8 framesCodec ID : V_MPEG4/ISO/AVCDuration : 1h 35mnBit rate : 1 810 KbpsWidth : 1 024 pixelsHeight : 434 pixelsDisplay aspect ratio : 2.35:1Frame rate mode : ConstantFrame rate : 23.976 (24000/1001) fpsColor space : YUVChroma subsampling : 4:2:0Bit depth : 8 bitsScan type : ProgressiveBits/(Pixel*Frame) : 0.170Stream size : 1.20 GiB (82%)Title : by Vovan366(ExKinoRay)Writing library : x264 core 146 r2538 121396cEncoding settings : cabac=1 / ref=8 / deblock=1:-3:-3 / analyse=0x3:0x113 / me=umh / subme=10 / psy=1 / psy_rd=1.01:0.10 / mixed_ref=1 / me_range=32 / chroma_me=1 / trellis=2 / 8x8dct=1 / cqm=0 / deadzone=21,11 / fast_pskip=0 / chroma_qp_offset=-3 / threads=6 / lookahead_threads=1 / sliced_threads=0 / nr=0 / decimate=0 / interlaced=0 / bluray_compat=0 / constrained_intra=0 / bframes=8 / b_pyramid=2 / b_adapt=2 / b_bias=0 / direct=3 / weightb=1 / open_gop=0 / weightp=2 / keyint=240 / keyint_min=23 / scenecut=40 / intra_refresh=0 / rc=2pass / mbtree=0 / bitrate=1810 / ratetol=1.0 / qcomp=0.60 / qpmin=0 / qpmax=69 / qpstep=4 / cplxblur=20.0 / qblur=0.5 / ip_ratio=1.40 / pb_ratio=1.30 / aq=1:1.00Default : YesForced : NoColor range : LimitedColor primaries : BT.709Transfer characteristics : BT.709Matrix coefficients : BT.709
    AudioID : 2Format : AC-3Format/Info : Audio Coding 3Mode extension : CM (complete main)Format settings, Endianness : BigCodec ID : A_AC3Duration : 1h 34mnBit rate mode : ConstantBit rate : 384 KbpsChannel(s) : 6 channelsChannel positions : Front: L C R, Side: L R, LFESampling rate : 48.0 KHzFrame rate : 31.250 fps (1536 spf)Compression mode : LossyStream size : 261 MiB (17%)Title : AC3 5.1 @ 384 kbps - DUB, iTunesLanguage : RussianDefault : YesForced : Yes
    Text #1ID : 3Format : UTF-8Codec ID : S_TEXT/UTF8Codec ID/Info : UTF-8 Plain TextDuration : 1h 30mnBit rate : 0 bpsCount of elements : 3Stream size : 89.0 Bytes (0%)Title : ForcedLanguage : RussianDefault : YesForced : No
    Text #2ID : 4Format : UTF-8Codec ID : S_TEXT/UTF8Codec ID/Info : UTF-8 Plain TextDuration : 1h 34mnBit rate : 76 bpsCount of elements : 1260Stream size : 53.0 KiB (0%)Title : iTunesLanguage : RussianDefault : NoForced : No
    Text #3ID : 5Format : UTF-8Codec ID : S_TEXT/UTF8Codec ID/Info : UTF-8 Plain TextDuration : 1h 34mnBit rate : 80 bpsCount of elements : 1266Stream size : 55.5 KiB (0%)Title : iTunesLanguage : UkrainianDefault : NoForced : No
    Text #4ID : 6Format : UTF-8Codec ID : S_TEXT/UTF8Codec ID/Info : UTF-8 Plain TextDuration : 1h 21mnBit rate : 55 bpsCount of elements : 1263Stream size : 33.5 KiB (0%)Title : iTunesLanguage : EnglishDefault : NoForced : No
    Menu00:00:00.000 : en:100:05:20.737 : en:200:08:09.197 : en:300:09:58.973 : en:400:12:24.994 : en:500:15:23.172 : en:600:19:07.187 : en:700:24:38.351 : en:800:30:16.564 : en:900:33:52.947 : en:1000:36:17.216 : en:1100:39:54.600 : en:1200:43:31.608 : en:1300:46:44.801 : en:1400:51:40.138 : en:1500:56:03.568 : en:1600:59:47.124 : en:1701:02:10.267 : en:1801:05:25.920 : en:1901:10:15.793 : en:2001:14:05.856 : en:2101:17:05.535 : en:2201:20:33.743 : en:2301:24:20.136 : en:24

    -

    Скриншоты

    -
    Скачать .torrent

    Скачать торрент-файл бесплатно и на максимальной скорости!

    Как скачивать? · Что такое торрент? · Рейтинг и ограничения

    !ВНИМАНИЕ!
    Сайт не распространяет и не хранит электронные версии произведений, а занимается лишь лишь предоставлением доступа к создаваемому пользователями каталогу ссылок на торрент-файлы, которые содержат только списки хеш-сумм, убедительная просьба с жалобами обращаться напрямую к пользователю. Файлы для обмена на трекере предоставлены пользователями сайта, и администрация не несёт ответственности за их содержание. Просьба не заливать файлы, защищенные авторскими правами, а также файлы нелегального содержания!


    _________________
    [Профиль] [ЛС]
    Показать сообщения:    
    Ответить на тему

    Текущее время: Сегодня, в 06:10

    Часовой пояс: GMT + 2



    Вы не можете начинать темы
    Вы не можете отвечать на сообщения
    Вы не можете редактировать свои сообщения
    Вы не можете удалять свои сообщения
    Вы не можете голосовать в опросах
    Вы не можете прикреплять файлы к сообщениям
    Вы не можете скачивать файлы