BitTorrentTracker PerecTracker.org
BitTorrentTracker PerecTracker.org
    
Регистрация  ·  Вход
 
 · 
Забыли пароль?

  • Город с утра до полуночи (Анатолий Васильев) [1976, комедия, мелодрама, DVB]

    Ответить на тему
     
    Автор Сообщение

    Flirldrerve

    Создавать темы 24-Мар-2016 17:11

           

    [Цитировать]

    Город с утра до полуночи
    Жанр: комедия, мелодрама
    Год выпуска: 1976
    Продолжительность: 01:32:01
    Режиссёр: Анатолий Васильев
    В ролях: Николай Рушковский, Юрий Мажуга, Лев Дуров, Николай Волков (младший), Георгий Мартынюк, Таисия Мороз, Лев Круглый, Анна Антоненко-Луконина, Андрей Мартынов, Сергей Сазонтьев, Павел Иванов, Татьяна Рогозина, Александр Вдовин, Вадим Олейник, Сергей Архипов, Костя Коржавин
    Описание: Своеобразная киномозаика, сложенная из отдельных новелл. Все вместе они рассказывают об одном дне из жизни людей, которые находятся рядом с нами в большом портовом городе.
    Сэмпл: http://sendfile.su/1218025
    Качество видео: DVB
    Формат видео: MPG
    Видео: 720x576 (4:3) @ 768x576, 25.000 fps, MPEG-2 Video, ~2266 Kbps, 0.219 bits/pixel
    Аудио: Русский, 48.0 KHz, MPEG-1 Audio layer 2, 2 ch, 192 Kbps

    MediaInfo

    General
    Complete name : Город с утра до полуночи 1976 Ностальгия.mpg
    Format : MPEG-PS
    File size : 1.61 GiB
    Duration : 1h 32mn
    Overall bit rate mode : Variable
    Overall bit rate : 2 508 Kbps
    Video
    ID : 224 (0xE0)
    Format : MPEG Video
    Format version : Version 2
    Format profile : Main@Main
    Format settings, BVOP : Yes
    Format settings, Matrix : Custom
    Format settings, GOP : Variable
    Format settings, picture structure : Frame
    Duration : 1h 32mn
    Bit rate mode : Variable
    Bit rate : 2 266 Kbps
    Maximum bit rate : 15.0 Mbps
    Width : 720 pixels
    Height : 576 pixels
    Display aspect ratio : 4:3
    Frame rate : 25.000 fps
    Standard : PAL
    Color space : YUV
    Chroma subsampling : 4:2:0
    Bit depth : 8 bits
    Scan type : Interlaced
    Scan order : Top Field First
    Compression mode : Lossy
    Bits/(Pixel*Frame) : 0.219
    Time code of first frame : 00:00:00:00
    Time code source : Group of pictures header
    GOP, Open/Closed : Open
    GOP, Open/Closed of first frame : Closed
    Stream size : 1.46 GiB (90%)
    Audio
    ID : 192 (0xC0)
    Format : MPEG Audio
    Format version : Version 1
    Format profile : Layer 2
    Duration : 1h 32mn
    Bit rate mode : Constant
    Bit rate : 192 Kbps
    Channel(s) : 2 channels
    Sampling rate : 48.0 KHz
    Compression mode : Lossy
    Stream size : 126 MiB (8%)

    Скриншоты

    Скачать .torrent

    Скачать торрент-файл бесплатно и на максимальной скорости!

    Как скачивать? · Что такое торрент? · Рейтинг и ограничения

    !ВНИМАНИЕ!
    Сайт не распространяет и не хранит электронные версии произведений, а занимается лишь лишь предоставлением доступа к создаваемому пользователями каталогу ссылок на торрент-файлы, которые содержат только списки хеш-сумм, убедительная просьба с жалобами обращаться напрямую к пользователю. Файлы для обмена на трекере предоставлены пользователями сайта, и администрация не несёт ответственности за их содержание. Просьба не заливать файлы, защищенные авторскими правами, а также файлы нелегального содержания!


    _________________
    [Профиль] [ЛС]
    Показать сообщения:    
    Ответить на тему

    Текущее время: Сегодня, в 03:28

    Часовой пояс: GMT + 2



    Вы не можете начинать темы
    Вы не можете отвечать на сообщения
    Вы не можете редактировать свои сообщения
    Вы не можете удалять свои сообщения
    Вы не можете голосовать в опросах
    Вы не можете прикреплять файлы к сообщениям
    Вы не можете скачивать файлы