BitTorrentTracker PerecTracker.org
BitTorrentTracker PerecTracker.org
    
Регистрация  ·  Вход
 
 · 
Забыли пароль?

  • Бесценная любовь / Серии: 1-4 из 4 (Игорь Ройзман) [2013, мелодрама, HDTV (1080i)]

    Ответить на тему
     
    Автор Сообщение

    rechyn

    Создавать темы 24-Мар-2016 12:34

           

    [Цитировать]

    Бесценная любовь--Год выпуска: 2013
    Производство: ""Парк Синема", Mars Media Entertainment"
    Жанр: мелодрама
    Продолжительность: 00:50:00
    Субтитры: нет-Режиссёр: Игорь Ройзман-В ролях:
    Юрий Колокольников, Анастасия Задорожная, Артём Осипов, Ольга Филимонова, Валерий Афанасьев, Дарья Чаруша, Владимир Капустин, Максим Пинскер,
    Павел Белозёров, Константин Глушков, Мария Сёмкина, Алла Будницкая, Софья Торосян, Людмила Соловьева, Константин Третьяков, Анастасия Аравина,
    Полина Сидихина, Ольга Дибцева, Анна Телицына, Анастасия Платонова, Ольга Мокшина, Александра Булычева, Светлана Закирова, Станислав Костецкий,
    Виктор Шутов, Игорь Новокшенов, Алексей Шаранин, Любовь Фирсова, Сергей Васильев, Дмитрий Георгиевский, Афанасий Ожерельев-Описание:
    Опытный аферист Илья навсегда завязывает с криминалом, влюбившись в прекрасную незнакомку. Но девушка больна и требуются на деньги на её лечение.
    Илья обращается за помощью к своему бывшему напарнику Юрию. Но тот деньги в долг не дает, а предлагает Илье очередную аферу. Илья последний раз играет по крупному…-Все раздачи сериала-Возраст: 16+-Качество: HDTV (1080i)
    Формат: TS
    Видео кодек: AVC
    Аудио кодек: АС3

    Видео: AVC, 1920 х 1080 (16:9), 25,000 кадр/сек, 7 083 Кбит/сек, 0.137 bit/pixel
    Аудио: АС3, 48000 Hz, 384 Kbps, 6 каналов
    -

    MediaInfo

    General
    ID : 0 (0x0)
    Complete name : D:\Раздачи\Бесценная любовь (1-4 серии из 4) HDTV (1080i)\Бесценная любовь (1-4 серии из 4) HDTV (1080i) 1-2.ts
    Format : MPEG-TS
    File size : 5.27 GiB
    Duration : 1h 36mn
    Overall bit rate mode : Variable
    Overall bit rate : 7 860 Kbps
    Video
    ID : 305 (0x131)
    Menu ID : 20105 (0x4E89)
    Format : AVC
    Format/Info : Advanced Video Codec
    Format profile : High@L4
    Format settings, CABAC : Yes
    Format settings, ReFrames : 3 frames
    Codec ID : 27
    Duration : 1h 36mn
    Bit rate : 7 083 Kbps
    Width : 1 920 pixels
    Height : 1 080 pixels
    Display aspect ratio : 16:9
    Frame rate : 25.000 fps
    Standard : Component
    Color space : YUV
    Chroma subsampling : 4:2:0
    Bit depth : 8 bits
    Scan type : Interlaced
    Scan type, store method : Separated fields
    Scan order : Top Field First
    Bits/(Pixel*Frame) : 0.137
    Stream size : 4.75 GiB (90%)
    Color range : Limited
    Color primaries : BT.709
    Transfer characteristics : BT.709
    Matrix coefficients : BT.709
    Audio
    ID : 415 (0x19F)
    Menu ID : 20105 (0x4E89)
    Format : AC-3
    Format/Info : Audio Coding 3
    Mode extension : CM (complete main)
    Format settings, Endianness : Big
    Codec ID : 6
    Duration : 1h 36mn
    Bit rate mode : Constant
    Bit rate : 384 Kbps
    Channel(s) : 6 channels
    Channel positions : Front: L C R, Side: L R, LFE
    Sampling rate : 48.0 KHz
    Frame rate : 31.250 fps (1536 spf)
    Compression mode : Lossy
    Delay relative to video : -20ms
    Stream size : 264 MiB (5%)
    Language : Russian
    Language, more info : Clean effects
    -

    Скриншоты сериала


    -
    Скачать .torrent

    Скачать торрент-файл бесплатно и на максимальной скорости!

    Как скачивать? · Что такое торрент? · Рейтинг и ограничения

    !ВНИМАНИЕ!
    Сайт не распространяет и не хранит электронные версии произведений, а занимается лишь лишь предоставлением доступа к создаваемому пользователями каталогу ссылок на торрент-файлы, которые содержат только списки хеш-сумм, убедительная просьба с жалобами обращаться напрямую к пользователю. Файлы для обмена на трекере предоставлены пользователями сайта, и администрация не несёт ответственности за их содержание. Просьба не заливать файлы, защищенные авторскими правами, а также файлы нелегального содержания!


    _________________
    [Профиль] [ЛС]
    Показать сообщения:    
    Ответить на тему

    Текущее время: Сегодня, в 06:06

    Часовой пояс: GMT + 2



    Вы не можете начинать темы
    Вы не можете отвечать на сообщения
    Вы не можете редактировать свои сообщения
    Вы не можете удалять свои сообщения
    Вы не можете голосовать в опросах
    Вы не можете прикреплять файлы к сообщениям
    Вы не можете скачивать файлы