Register  ·  Log in
Forgot password?

  • Затерянный остров / L\'ile (Оливье Буалло / Olivier Boillot) [2011, Франция, Реюньон, фантастика, приключения, HDRip] MVO (СТС)

    Reply to topic
    Author Message


    Post 24-Mar-2016 10:01



    Затерянный остров / L'ile
    Страна: Франция, Реюньон
    Жанр: Фантастика, приключения
    Год выпуска: 2011
    Продолжительность: 01:30:38
    Перевод: Профессиональный (многоголосый закадровый) СТС
    Режиссер: Оливье Буалло / Olivier Boillot
    В ролях: Мишель Беатри, Сирьель Дебрей, Поль Декомб, Каддор Доргам, Жереми Дюпло младший
    Описание: 1942 год. Военный самолёт терпит крушение и падает в Атлантический океан. Выжившие члены экипажа спасаются на шлюпке, которую прибивает к берегу. Лётчики оказываются на острове. Спустя некоторое время они находят заброшенный туннель и через него попадают в совершенно другой мир...
    Формат видео: AVI
    Качество видео: HDRip (BDRip.1080p)
    Видео: XviD, 656x368, 25fps, 1010kbps
    Аудио: MPEG Layer 3, 2ch, 48000Hz, 128kbps


    Complete name : Zaterannyi.Ostrov.2011.P.HDRip.700.CurHaJI.avi
    Format : AVI
    Format/Info : Audio Video Interleave
    File size : 744 MiB
    Duration : 1h 30mn
    Overall bit rate : 1 148 Kbps
    Movie name : Zaterannyi.Ostrov.2011.P.HDRip.700.CurHaJI
    Writing library : VirtualDub build 35491/release
    ID : 0
    Format : MPEG-4 Visual
    Format profile : Advanced Simple@L5
    Format settings, BVOP : 1
    Format settings, QPel : No
    Format settings, GMC : No warppoints
    Format settings, Matrix : Custom
    Codec ID : XVID
    Codec ID/Hint : XviD
    Duration : 1h 30mn
    Bit rate : 1 010 Kbps
    Width : 656 pixels
    Height : 368 pixels
    Display aspect ratio : 16:9
    Frame rate : 25.000 fps
    Color space : YUV
    Chroma subsampling : 4:2:0
    Bit depth : 8 bits
    Scan type : Progressive
    Compression mode : Lossy
    Bits/(Pixel*Frame) : 0.167
    Stream size : 655 MiB (88%)
    Writing library : XviD 73
    ID : 1
    Format : MPEG Audio
    Format version : Version 1
    Format profile : Layer 3
    Codec ID : 55
    Codec ID/Hint : MP3
    Duration : 1h 30mn
    Bit rate mode : Constant
    Bit rate : 128 Kbps
    Channel(s) : 2 channels
    Sampling rate : 48.0 KHz
    Compression mode : Lossy
    Stream size : 83.0 MiB (11%)
    Alignment : Split accross interleaves
    Interleave, duration : 40 ms (1.00 video frame)
    Interleave, preload duration : 500 ms
    Writing library : LAME3.99r
    Encoding settings : -m s -V 4 -q 2 -lowpass 17 -b 128


    Download .torrent

    Download free and at maximum speed!

    How to Download? · What is a torrent? · Ratings and Limitations

    The site does not extend and does not store electronic(digital) versions of products, and only gives access to a reference catalogue created by users on torrent-files which contain only lists of the hash-sums, the earnest entreaty, with complaints(abuse) to access directly to the user. Files for an exchange on tracker are given by users of a site, and the administration does not bear the responsibility for their maintenance. The request to not fill in the files protected by copyrights, and also files of the illegal maintenance!

    [Profile] [PM]
    Display posts from previous:    
    Reply to topic

    The time now is: Today 23:24

    All times are GMT + 3 Hours

    You cannot post new topics in this forum
    You cannot reply to topics in this forum
    You cannot edit your posts in this forum
    You cannot delete your posts in this forum
    You cannot vote in polls in this forum
    You cannot attach files in this forum
    You cannot download files in this forum