Register  ·  Log in
Forgot password?

  • Крутые яйца / Un gallo con muchos huevos (Габриэль Рива Паласио Алатристе / Gabriel Riva Palacio Alatriste) [2015, Мексика, Мультфильм, комедия, DVDRip] Dub

    Reply to topic
    Author Message


    Post 24-Mar-2016 05:52



    Крутые яйца / Un gallo con muchos huevos-Страна: Мексика
    Жанр: Мультфильм, комедия
    Продолжительность: 01:38:00
    Год выпуска: 2015-Перевод: Профессиональный (дублированный)
    Русские субтитры: нет-Режиссёр: Габриэль Рива Паласио Алатристе / Gabriel Riva Palacio Alatriste-Роли озвучивали: Бруно Бичир, Карлос Эспехель, Анхелика Вале, Омар Чапарро, Майте Перрони Беорлеги, Серхио Сендель, Нинель Конде, Джейми Эймерих-Описание: Молодой петух Тото хочет добиться в жизни гораздо большего, чем просто каждое утро будить свою ферму. Его мечта — стать знаменитым боксером! Но не зря говорят: «Бойся своих желаний».- l -Качество: DVDRip
    Формат: AVI
    Видео: 720x400 (16:9), 23.976 fps, XviD 1.2.1, 1925 Kbps
    Аудио: 48.0 KHz, AC3 Dolby Digita, 2 ch, 192 Kbps
    Субтитры: отсутствуют---


    General Complete name : C:\Users\Andreas\Downloads\Krutie.yajza.2015.DVDRip.avi Format : AVI Format/Info : Audio Video Interleave File size : 1.46 GiB Duration : 1h 38mn Overall bit rate : 2 126 Kbps Writing application : VirtualDubMod (build 2540/release) Writing library : VirtualDubMod build 2540/release Video #0 ID : 0 Format : MPEG-4 Visual Format profile : Advanced Simple@L5 Format settings, BVOP : 2 Format settings, QPel : No Format settings, GMC : No warppoints Format settings, Matrix : Default (MPEG) Codec ID : XVID Codec ID/Hint : XviD Duration : 1h 38mn Bit rate : 1 925 Kbps Width : 720 pixels Height : 400 pixels Display aspect ratio : 16:9 Frame rate : 23.976 fps Color space : YUV Chroma subsampling : 4:2:0 Bit depth : 8 bits Scan type : Progressive Compression mode : Lossy Bits/(Pixel*Frame) : 0.279 Stream size : 1.32 GiB (91%) Writing library : XviD 1.2.1 (UTC 2008-12-04) Audio #1 ID : 1 Format : AC-3 Format/Info : Audio Coding 3 Mode extension : CM (complete main) Format settings, Endianness : Big Codec ID : 2000 Duration : 1h 38mn Bit rate mode : Constant Bit rate : 192 Kbps Channel(s) : 2 channels Channel positions : Front: L R Sampling rate : 48.0 KHz Bit depth : 16 bits Compression mode : Lossy Stream size : 135 MiB (9%) Alignment : Split accross interleaves Interleave, duration : 42 ms (1.00 video frame) Interleave, preload duration : 500 ms


    Download .torrent

    Download free and at maximum speed!

    How to Download? · What is a torrent? · Ratings and Limitations

    The site does not extend and does not store electronic(digital) versions of products, and only gives access to a reference catalogue created by users on torrent-files which contain only lists of the hash-sums, the earnest entreaty, with complaints(abuse) to access directly to the user. Files for an exchange on tracker are given by users of a site, and the administration does not bear the responsibility for their maintenance. The request to not fill in the files protected by copyrights, and also files of the illegal maintenance!

    [Profile] [PM]
    Display posts from previous:    
    Reply to topic

    The time now is: Today 15:14

    All times are GMT + 3 Hours

    You cannot post new topics in this forum
    You cannot reply to topics in this forum
    You cannot edit your posts in this forum
    You cannot delete your posts in this forum
    You cannot vote in polls in this forum
    You cannot attach files in this forum
    You cannot download files in this forum