Register  ·  Log in
Forgot password?

  • Тайна жителей Луны / Le secret des sélénites (Жан Имаж / Jean Image) [1984, Франция, мультфильм, фантастика, фэнтези, комедия, семейный, Telesync] [Советская прокатная копия] Dub (к/с им. А. Довженко)

    Reply to topic
    Author Message


    Post 24-Mar-2016 01:30



    Тайна жителей Луны / Le secret des sélénites [Советская прокатная копия]-Страна: Франция
    Жанр: мультфильм, фантастика, фэнтези, комедия, семейный
    Год выпуска: 1984
    Продолжительность: 01:09:58
    Перевод: Профессиональный (дублированный) - Киностудия им. Александра Довженко-Режиссер: Жан Имаж / Jean Image- | Релиз: -Описание: 1787 год. Известный учёный и астролог Сириус открыл, что на луне есть жизнь. И если верить анналам, жители Луны владеют секретом бессмертия. Ученый попросит своего эксцентричного кузена Барона Мюнхаузена отправится на луну и узнать тайну бессмертия за большое вознаграждение. Ведомый больше жаждой приключений чем жадностью барон экипирует огромный трёхмачтовый корабль шарами горячего воздуха и отправляется в путь…-Доп. информация: За любезно предоставленную оцифровку большое спасибо [url=profile.php?mode=viewprofile&u=8015908]persi-kot[/url].-Семпл:Тип релиза: Telesync
    Контейнер: MPG
    Видео: 720x576 (4:3) @ 768x576, 25.000 fps, MPEG-2 Video, ~8047 Kbps, 0.776 bits/pixel
    Аудио: Русский, 48.0 KHz, AC3, 2 ch, 256 Kbps


    GeneralComplete name : Тайна жителей Луны Dub к.с. им. А. Довженко.mpgFormat : MPEG-PSFile size : 4.14 GiBDuration : 1h 9mnOverall bit rate mode : VariableOverall bit rate : 8 472 Kbps
    VideoID : 224 (0xE0)Format : MPEG VideoFormat version : Version 2Format profile : Main@MainFormat settings, BVOP : YesFormat settings, Matrix : DefaultFormat settings, GOP : VariableFormat settings, picture structure : FrameDuration : 1h 9mnBit rate mode : VariableBit rate : 8 100 KbpsWidth : 720 pixelsHeight : 576 pixelsDisplay aspect ratio : 4:3Frame rate : 25.000 fpsStandard : PALColor space : YUVChroma subsampling : 4:2:0Bit depth : 8 bitsScan type : InterlacedScan order : Top Field FirstCompression mode : LossyBits/(Pixel*Frame) : 0.781Time code of first frame : 00:00:00:00Time code source : Group of pictures headerStream size : 3.93 GiB (95%)Color primaries : BT.601 PALTransfer characteristics : BT.470 System B, BT.470 System GMatrix coefficients : BT.601
    AudioID : 189 (0xBD)-128 (0x80)Format : AC-3Format/Info : Audio Coding 3Mode extension : CM (complete main)Format settings, Endianness : BigMuxing mode : DVD-VideoDuration : 1h 9mnBit rate mode : ConstantBit rate : 256 KbpsChannel(s) : 2 channelsChannel positions : Front: L RSampling rate : 48.0 KHzFrame rate : 31.250 fps (1536 spf)Compression mode : LossyStream size : 128 MiB (3%)


    Download .torrent

    Download free and at maximum speed!

    How to Download? · What is a torrent? · Ratings and Limitations

    The site does not extend and does not store electronic(digital) versions of products, and only gives access to a reference catalogue created by users on torrent-files which contain only lists of the hash-sums, the earnest entreaty, with complaints(abuse) to access directly to the user. Files for an exchange on tracker are given by users of a site, and the administration does not bear the responsibility for their maintenance. The request to not fill in the files protected by copyrights, and also files of the illegal maintenance!

    [Profile] [PM]
    Display posts from previous:    
    Reply to topic

    The time now is: Today 11:53

    All times are GMT + 3 Hours

    You cannot post new topics in this forum
    You cannot reply to topics in this forum
    You cannot edit your posts in this forum
    You cannot delete your posts in this forum
    You cannot vote in polls in this forum
    You cannot attach files in this forum
    You cannot download files in this forum