BitTorrentTracker PerecTracker.org
BitTorrentTracker PerecTracker.org
    
Регистрация  ·  Вход
 
 · 
Забыли пароль?

  • Тайна жителей Луны / Le secret des sélénites (Жан Имаж / Jean Image) [1984, Франция, мультфильм, фантастика, фэнтези, комедия, семейный, Telesync] [Советская прокатная копия] Dub (к/с им. А. Довженко)

    Ответить на тему
     
    Автор Сообщение

    Flirldrerve

    Создавать темы 24-Мар-2016 00:30

           

    [Цитировать]

    Тайна жителей Луны / Le secret des sélénites [Советская прокатная копия]-Страна: Франция
    Жанр: мультфильм, фантастика, фэнтези, комедия, семейный
    Год выпуска: 1984
    Продолжительность: 01:09:58
    Перевод: Профессиональный (дублированный) - Киностудия им. Александра Довженко-Режиссер: Жан Имаж / Jean Image- | Релиз: -Описание: 1787 год. Известный учёный и астролог Сириус открыл, что на луне есть жизнь. И если верить анналам, жители Луны владеют секретом бессмертия. Ученый попросит своего эксцентричного кузена Барона Мюнхаузена отправится на луну и узнать тайну бессмертия за большое вознаграждение. Ведомый больше жаждой приключений чем жадностью барон экипирует огромный трёхмачтовый корабль шарами горячего воздуха и отправляется в путь…-Доп. информация: За любезно предоставленную оцифровку большое спасибо [url=profile.php?mode=viewprofile&u=8015908]persi-kot[/url].-Семпл: http://sendfile.su/1217535-Тип релиза: Telesync
    Контейнер: MPG
    Видео: 720x576 (4:3) @ 768x576, 25.000 fps, MPEG-2 Video, ~8047 Kbps, 0.776 bits/pixel
    Аудио: Русский, 48.0 KHz, AC3, 2 ch, 256 Kbps

    MediaInfo

    GeneralComplete name : Тайна жителей Луны Dub к.с. им. А. Довженко.mpgFormat : MPEG-PSFile size : 4.14 GiBDuration : 1h 9mnOverall bit rate mode : VariableOverall bit rate : 8 472 Kbps
    VideoID : 224 (0xE0)Format : MPEG VideoFormat version : Version 2Format profile : Main@MainFormat settings, BVOP : YesFormat settings, Matrix : DefaultFormat settings, GOP : VariableFormat settings, picture structure : FrameDuration : 1h 9mnBit rate mode : VariableBit rate : 8 100 KbpsWidth : 720 pixelsHeight : 576 pixelsDisplay aspect ratio : 4:3Frame rate : 25.000 fpsStandard : PALColor space : YUVChroma subsampling : 4:2:0Bit depth : 8 bitsScan type : InterlacedScan order : Top Field FirstCompression mode : LossyBits/(Pixel*Frame) : 0.781Time code of first frame : 00:00:00:00Time code source : Group of pictures headerStream size : 3.93 GiB (95%)Color primaries : BT.601 PALTransfer characteristics : BT.470 System B, BT.470 System GMatrix coefficients : BT.601
    AudioID : 189 (0xBD)-128 (0x80)Format : AC-3Format/Info : Audio Coding 3Mode extension : CM (complete main)Format settings, Endianness : BigMuxing mode : DVD-VideoDuration : 1h 9mnBit rate mode : ConstantBit rate : 256 KbpsChannel(s) : 2 channelsChannel positions : Front: L RSampling rate : 48.0 KHzFrame rate : 31.250 fps (1536 spf)Compression mode : LossyStream size : 128 MiB (3%)

    Скриншоты

    Скачать .torrent

    Скачать торрент-файл бесплатно и на максимальной скорости!

    Как скачивать? · Что такое торрент? · Рейтинг и ограничения

    !ВНИМАНИЕ!
    Сайт не распространяет и не хранит электронные версии произведений, а занимается лишь лишь предоставлением доступа к создаваемому пользователями каталогу ссылок на торрент-файлы, которые содержат только списки хеш-сумм, убедительная просьба с жалобами обращаться напрямую к пользователю. Файлы для обмена на трекере предоставлены пользователями сайта, и администрация не несёт ответственности за их содержание. Просьба не заливать файлы, защищенные авторскими правами, а также файлы нелегального содержания!


    _________________
    [Профиль] [ЛС]
    Показать сообщения:    
    Ответить на тему

    Текущее время: Сегодня, в 20:53

    Часовой пояс: GMT + 2



    Вы не можете начинать темы
    Вы не можете отвечать на сообщения
    Вы не можете редактировать свои сообщения
    Вы не можете удалять свои сообщения
    Вы не можете голосовать в опросах
    Вы не можете прикреплять файлы к сообщениям
    Вы не можете скачивать файлы