BitTorrentTracker PerecTracker.org
BitTorrentTracker PerecTracker.org
    
Регистрация  ·  Вход
 
 · 
Забыли пароль?

  • Тайна Егора, или Необыкновенные приключения обыкновенным летом (Александра Ерофеева) [2012, Россия, приключения, детский, HDTVRip]

    Ответить на тему
     
    Автор Сообщение

    Flirldrerve

    Создавать темы 23-Мар-2016 20:18

           

    [Цитировать]

    Тайна Егора, или Необыкновенные приключения обыкновенным летом
    Страна: Россия
    Жанр: приключения, детский
    Год выпуска: 2012
    Продолжительность: 01:28:58
    Cубтитры: нет
    Оригинальная аудиодорожка: русский-Режиссер: Александра Ерофеева-В ролях: Егор Клинаев, Денис Суханов, Юлия Анищенко, Ольга Волкова, Кирилл Кяро, Агриппина Стеклова, Александр Вдовин,
    Марина Дровосекова, Константин Юдаев, Анна Гвоздь, Иван Мамонов, Валентин Садики, Олег Чаплыгин, Юля Чаплыгина-Описание: Тёма Круглов, 12-летний школьник, мечтал провести летние каникулы, как ему нравится: целыми днями играть в компьютерные игры, а потом с мамой и отчимом поехать на море. Однако обстоятельства сложились так, что он оказался на чужой даче, без интернета, да ещё в компании собственного отца Олега, с которым до этого почти не общался. Найти общий язык Тёме и Олегу помогают загадочные события, которые происходят в развалинах старинной усадьбы, находящейся недалеко от дачи…-Качество видео: HDTVRip
    Формат видео: AVI
    Видео: 720x400 (1.80:1), 25 fps, XviD build 50 ~2151 kbps avg, 0.30 bit/pixel
    Аудио: 48 kHz, AC3 Dolby Digital, 2/0 (L,R) ch, ~192 kbps-Скачать сэмпл-MediaInfo
    Format                      : AVI
    Format/Info                 : Audio Video Interleave
    File size                   : 1.46 GiB
    Duration                    : 1h 28mn
    Overall bit rate            : 2 354 Kbps
    Writing application         : VirtualDubMod 1.5.10.3 | www.virtualdub-fr.org || (build 2550/release)
    Writing library             : VirtualDubMod build 2550/release
    Video
    ID                          : 0
    Format                      : MPEG-4 Visual
    Format profile              : Advanced Simple@L5
    Format settings, BVOP       : 1
    Format settings, QPel       : No
    Format settings, GMC        : No warppoints
    Format settings, Matrix     : Default (MPEG)
    Codec ID                    : XVID
    Codec ID/Hint               : XviD
    Duration                    : 1h 28mn
    Bit rate                    : 2 152 Kbps
    Width                       : 720 pixels
    Height                      : 400 pixels
    Display aspect ratio        : 16:9
    Frame rate                  : 25.000 fps
    Color space                 : YUV
    Chroma subsampling          : 4:2:0
    Bit depth                   : 8 bits
    Scan type                   : Progressive
    Compression mode            : Lossy
    Bits/(Pixel*Frame)          : 0.299
    Stream size                 : 1.34 GiB (91%)
    Writing library             : XviD 1.2.1 (UTC 2008-12-04)
    Audio
    ID                          : 1
    Format                      : AC-3
    Format/Info                 : Audio Coding 3
    Mode extension              : CM (complete main)
    Format settings, Endianness : Big
    Codec ID                    : 2000
    Duration                    : 1h 28mn
    Bit rate mode               : Constant
    Bit rate                    : 192 Kbps
    Channel(s)                  : 2 channels
    Channel positions           : Front: L R
    Sampling rate               : 48.0 KHz
    Compression mode            : Lossy
    Stream size                 : 122 MiB (8%)
    Alignment                   : Split accross interleaves
    Interleave, duration        : 40 ms (1.00 video frame)
    Interleave, preload duratio : 500 ms

    Скриншоты

    Скачать .torrent

    Скачать торрент-файл бесплатно и на максимальной скорости!

    Как скачивать? · Что такое торрент? · Рейтинг и ограничения

    !ВНИМАНИЕ!
    Сайт не распространяет и не хранит электронные версии произведений, а занимается лишь лишь предоставлением доступа к создаваемому пользователями каталогу ссылок на торрент-файлы, которые содержат только списки хеш-сумм, убедительная просьба с жалобами обращаться напрямую к пользователю. Файлы для обмена на трекере предоставлены пользователями сайта, и администрация не несёт ответственности за их содержание. Просьба не заливать файлы, защищенные авторскими правами, а также файлы нелегального содержания!


    _________________
    [Профиль] [ЛС]
    Показать сообщения:    
    Ответить на тему

    Текущее время: Сегодня, в 04:00

    Часовой пояс: GMT + 2



    Вы не можете начинать темы
    Вы не можете отвечать на сообщения
    Вы не можете редактировать свои сообщения
    Вы не можете удалять свои сообщения
    Вы не можете голосовать в опросах
    Вы не можете прикреплять файлы к сообщениям
    Вы не можете скачивать файлы