BitTorrentTracker PerecTracker.org
BitTorrentTracker PerecTracker.org
    
Регистрация  ·  Вход
 
 · 
Забыли пароль?

  • Голодные игры: Сойка-пересмешница. Часть II / The Hunger Games: Mockingjay - Part 2 (Френсис Лоуренс / Francis Lawrence) [2015, США, Германия, фантастика, приключения, BDRip-AVC] Dub + Original + Sub (rus, eng)

    Ответить на тему
     
    Автор Сообщение

    Light

    Создавать темы 23-Мар-2016 20:18

           

    [Цитировать]

    Голодные игры: Сойка-пересмешница. Часть II / The Hunger Games: Mockingjay - Part 2«Да не угаснет пламя»-Страна: США, Германия
    Жанр: фантастика, приключения
    Год выпуска: 2015
    Продолжительность: 02:16:57
    Перевод: Профессиональный (полное дублирование)
    Оригинальная аудиодорожка: английский
    Cубтитры: русские, английские
    Навигация по главам: есть
    Режиссёр: Френсис Лоуренс / Francis Lawrence
    В ролях: Дженнифер Лоуренс, Джош Хатчерсон, Лиам Хемсворт, Вуди Харрельсон, Дональд Сазерленд, Филип Сеймур Хоффман, Джулианна Мур, Уиллоу Шилдс, Сэм Клафлин, Элизабет Бэнкс, Махершала Али, Джена Мэлоун, Джеффри Райт, Паула Малкомсон, Стэнли Туччи, Натали Дормер, Ивэн Росс, Элден Хенсон, Уэс Чэтэм, Эжени Бондюран
    Описание: Китнисс Эвердин и своенравный Пит Мелларк пытаются выиграть гражданскую войну между самодержавным Капитолием и истерзанными войной районами Панема…

    Качество видео: BDRip-AVC (исходник - BDRemux|M_GAMES2_RMX-BLUEBIRD)
    Формат видео: MKV
    Видео: x264, 1056x440 (2.40:1), 23,976 fps, ~2270 kbps, 0.204 bit/pixel
    Аудио 1: 48 kHz, AC3 Dolby Digital, 3/2 (L,C,R,l,r) + LFE ch, ~384 kbps [русский]
    Аудио 2: 48 kHz, AC3 Dolby Digital, 3/2 (L,C,R,l,r) + LFE ch, ~384 kbps [английский]
    Формат субтитров: softsub (SRT)
    MediaInfo | x264 log
    Format : Matroska
    Format version : Version 4 / Version 2
    File size : 2.90 GiB
    Duration : 2h 16mn
    Overall bit rate : 3 036 Kbps
    Movie name : The Hunger Games: Mockingjay - Part 2 / Голодные игры: Сойка-пересмешница. Часть 2 (2015) :: AFM::
    Encoded date : UTC 2016-03-23 08:46:05
    Writing application : mkvmerge v8.3.0 ('Over the Horizon') 32bit
    Writing library : libebml v1.3.1 + libmatroska v1.4.2
    Video
    ID : 1
    Format : AVC
    Format/Info : Advanced Video Codec
    Format profile : High@L4.1
    Format settings, CABAC : Yes
    Format settings, ReFrames : 11 frames
    Codec ID : V_MPEG4/ISO/AVC
    Duration : 2h 16mn
    Bit rate : 2 270 Kbps
    Width : 1 056 pixels
    Height : 440 pixels
    Display aspect ratio : 2.40:1
    Frame rate mode : Constant
    Frame rate : 23.976 fps
    Color space : YUV
    Chroma subsampling : 4:2:0
    Bit depth : 8 bits
    Scan type : Progressive
    Bits/(Pixel*Frame) : 0.204
    Stream size : 2.11 GiB (73%)
    Title : BDRip by AFM [RuTracker.org]
    Writing library : x264 core 148 r2665+53 6629127 t_mod_Custom [8-bit@all X86_64]
    Encoding settings : cabac=1 / ref=11 / deblock=1:-2:-1 / analyse=0x3:0x113 / me=umh / subme=11 / psy=1 / fade_compensate=0.00 / psy_rd=1.00:0.00 / mixed_ref=1 / me_range=32 / chroma_me=1 / trellis=2 / 8x8dct=1 / cqm=0 / deadzone=21,11 / fast_pskip=0 / chroma_qp_offset=-2 / threads=6 / lookahead_threads=1 / sliced_threads=0 / nr=0 / decimate=0 / interlaced=0 / bluray_compat=0 / constrained_intra=0 / fgo=0 / bframes=15 / b_pyramid=2 / b_adapt=2 / b_bias=0 / direct=1 / weightb=1 / open_gop=0 / weightp=2 / keyint=250 / keyint_min=23 / scenecut=40 / intra_refresh=0 / rc_lookahead=40 / rc=2pass / mbtree=0 / bitrate=2270 / ratetol=1.0 / qcomp=0.65 / qpmin=0:0:0 / qpmax=69:69:69 / qpstep=4 / cplxblur=20.0 / qblur=0.5 / vbv_maxrate=50000 / vbv_bufsize=62500 / nal_hrd=none / filler=0 / ip_ratio=1.33 / pb_ratio=1.30 / aq=1:0.90 / aq-sensitivity=10.00 / aq-factor=1.00:1.00:1.00 / aq2=0 / aq3=0 / zones=180600,197017,q=30
    Language : English
    Default : Yes
    Forced : No
    Audio #1
    ID : 2
    Format : AC-3
    Format/Info : Audio Coding 3
    Mode extension : CM (complete main)
    Format settings, Endianness : Big
    Codec ID : A_AC3
    Duration : 2h 16mn
    Bit rate mode : Constant
    Bit rate : 384 Kbps
    Channel(s) : 6 channels
    Channel positions : Front: L C R, Side: L R, LFE
    Sampling rate : 48.0 KHz
    Compression mode : Lossy
    Stream size : 376 MiB (13%)
    Title : Dub, AC3 5.1 ~384 kbps
    Language : Russian
    Default : Yes
    Forced : No
    Audio #2
    ID : 3
    Format : AC-3
    Format/Info : Audio Coding 3
    Mode extension : CM (complete main)
    Format settings, Endianness : Big
    Codec ID : A_AC3
    Duration : 2h 16mn
    Bit rate mode : Constant
    Bit rate : 384 Kbps
    Channel(s) : 6 channels
    Channel positions : Front: L C R, Side: L R, LFE
    Sampling rate : 48.0 KHz
    Compression mode : Lossy
    Stream size : 376 MiB (13%)
    Title : Original, AC3 5.1 ~384 kbps
    Language : English
    Default : No
    Forced : No
    Text #1
    ID : 4
    Format : UTF-8
    Codec ID : S_TEXT/UTF8
    Codec ID/Info : UTF-8 Plain Text
    Language : Russian
    Default : No
    Forced : No
    Text #2
    ID : 5
    Format : UTF-8
    Codec ID : S_TEXT/UTF8
    Codec ID/Info : UTF-8 Plain Text
    Language : English
    Default : No
    Forced : No
    Text #3
    ID : 6
    Format : UTF-8
    Codec ID : S_TEXT/UTF8
    Codec ID/Info : UTF-8 Plain Text
    Title : SDH
    Language : English
    Default : No
    Forced : No
    Menu
    00:00:00.000 : en:00:00:00.000
    00:07:39.042 : en:00:07:39.042
    00:16:49.217 : en:00:16:49.217
    00:24:46.985 : en:00:24:46.985
    00:31:59.960 : en:00:31:59.960
    00:37:11.688 : en:00:37:11.688
    00:46:42.717 : en:00:46:42.717
    00:55:00.881 : en:00:55:00.881
    01:02:46.429 : en:01:02:46.429
    01:09:27.497 : en:01:09:27.497
    01:18:42.968 : en:01:18:42.968
    01:29:51.136 : en:01:29:51.136
    01:37:08.239 : en:01:37:08.239
    01:49:01.785 : en:01:49:01.785
    01:56:55.759 : en:01:56:55.759
    02:03:33.239 : en:02:03:33.239

    x264

    x264 [info]: frame I:1343 Avg QP:10.99 size: 74544
    x264 [info]: frame P:40493 Avg QP:14.77 size: 25550
    x264 [info]: frame B:155181 Avg QP:14.50 size: 7686
    x264 [info]: consecutive B-frames: 2.0% 2.3% 11.7% 13.5% 17.1% 25.2% 9.1% 4.1% 4.1% 2.6% 2.4% 1.0% 1.8% 1.2% 1.0% 0.9%
    x264 [info]: mb I I16..4: 6.4% 70.9% 22.7%
    x264 [info]: mb P I16..4: 1.1% 11.2% 1.5% P16..4: 27.1% 34.3% 16.5% 0.0% 0.0% skip: 8.3%
    x264 [info]: mb B I16..4: 0.2% 1.0% 0.2% B16..8: 30.0% 25.8% 5.9% direct: 5.7% skip:31.1% L0:46.4% L1:42.1% BI:11.5%
    x264 [info]: 8x8 transform intra:77.0% inter:39.0%
    x264 [info]: coded y,uvDC,uvAC intra: 83.7% 85.2% 74.2% inter: 24.1% 18.3% 12.1%
    x264 [info]: i16 v,h,dc,p: 59% 9% 7% 25%
    x264 [info]: i8 v,h,dc,ddl,ddr,vr,hd,vl,hu: 13% 9% 13% 9% 11% 11% 10% 11% 13%
    x264 [info]: i4 v,h,dc,ddl,ddr,vr,hd,vl,hu: 13% 7% 16% 8% 13% 12% 11% 9% 11%
    x264 [info]: i8c dc,h,v,p: 49% 23% 16% 12%
    x264 [info]: Weighted P-Frames: Y:97.5% UV:1.8%
    x264 [info]: ref P L0: 44.1% 6.2% 18.9% 7.6% 6.3% 4.3% 4.0% 2.1% 2.1% 1.8% 2.0% 0.5% 0.0%
    x264 [info]: ref B L0: 67.0% 13.7% 6.9% 3.5% 2.9% 2.3% 1.7% 1.1% 0.6% 0.3%
    x264 [info]: ref B L1: 90.7% 9.3%
    x264 [info]: kb/s:2265.86

    Скриншоты

    с названием

    ~~ Source ~~

    ~~ Rip ~~
    Скачать .torrent

    Скачать торрент-файл бесплатно и на максимальной скорости!

    Как скачивать? · Что такое торрент? · Рейтинг и ограничения

    !ВНИМАНИЕ!
    Сайт не распространяет и не хранит электронные версии произведений, а занимается лишь лишь предоставлением доступа к создаваемому пользователями каталогу ссылок на торрент-файлы, которые содержат только списки хеш-сумм, убедительная просьба с жалобами обращаться напрямую к пользователю. Файлы для обмена на трекере предоставлены пользователями сайта, и администрация не несёт ответственности за их содержание. Просьба не заливать файлы, защищенные авторскими правами, а также файлы нелегального содержания!


    _________________
    [Профиль] [ЛС]
    Показать сообщения:    
    Ответить на тему

    Текущее время: Сегодня, в 12:05

    Часовой пояс: GMT + 2



    Вы не можете начинать темы
    Вы не можете отвечать на сообщения
    Вы не можете редактировать свои сообщения
    Вы не можете удалять свои сообщения
    Вы не можете голосовать в опросах
    Вы не можете прикреплять файлы к сообщениям
    Вы не можете скачивать файлы