BitTorrentTracker PerecTracker.org
BitTorrentTracker PerecTracker.org
    
Регистрация  ·  Вход
 
 · 
Забыли пароль?

  • Шпионский мост / Bridge of Spies (Стивен Спилберг / Steven Spielberg) [2015, США, Германия, Индия, триллер, драма, история, BDRip] AVO (Сербин)

    Ответить на тему
     
    Автор Сообщение

    Light

    Создавать темы 23-Мар-2016 11:54

           

    [Цитировать]

    Шпионский мост / Bridge of SpiesСтрана: США, Германия, Индия
    Жанр: триллер, драма, история
    Год выпуска: 2015
    Продолжительность: 02:21:21
    Перевод: Авторский (одноголосый закадровый) Юрий Сербин
    Cубтитры: нет
    Режиссер: Стивен Спилберг / Steven Spielberg
    В ролях: Том Хэнкс, Марк Райлэнс, Эми Райан, Алан Алда, Остин Стоуэлл, Скотт Шеперд, Джесси Племонс, Доменик Ломбардоззи, Себастьян Кох, Ив Хьюсон
    Описание: Действие фильма происходит на фоне серии реальных исторических событий и рассказывает о бруклинском адвокате Джеймсе Доноване, который оказывается в эпицентре холодной войны, когда ЦРУ отправляет его на практически невозможное задание — договориться об освобождении захваченного в СССР американского пилота самолета-разведчика U2.

    Качество видео: BDRip
    Формат видео: AVI
    Видео кодек: XviD
    Аудио кодек: AC3
    Видео: 720x304 (2.37:1), 23.976 fps, XviD build 66 ~1818 kbps avg, 0.35 bit/pixel
    Аудио: 48 kHz, AC3 Dolby Digital, 3/2 (L,C,R,l,r) + LFE ch, ~384 kbps

    Доп.инфо

    за видеоряд спасибо MooN_WalkeR
    за Сербина спасибо HDTracker

    MediaInfo

    Complete name : Шпионский мост.avi
    Format : AVI
    Format/Info : Audio Video Interleave
    Format profile : OpenDML
    File size : 2.18 GiB
    Duration : 2h 21mn
    Overall bit rate : 2 210 Kbps
    Writing application : VirtualDubMod 1.5.10.3 | www.virtualdub-fr.org || (build 2550/release)
    Video
    ID : 0
    Format : MPEG-4 Visual
    Format profile : Advanced Simple@L5
    Format settings, BVOP : 1
    Format settings, QPel : No
    Format settings, GMC : No warppoints
    Format settings, Matrix : Custom
    Codec ID : XVID
    Codec ID/Hint : XviD
    Duration : 2h 21mn
    Bit rate : 1 814 Kbps
    Width : 720 pixels
    Height : 304 pixels
    Display aspect ratio : 2.35:1
    Frame rate : 23.976 (23976/1000) fps
    Color space : YUV
    Chroma subsampling : 4:2:0
    Bit depth : 8 bits
    Scan type : Progressive
    Compression mode : Lossy
    Bits/(Pixel*Frame) : 0.346
    Stream size : 1.79 GiB (82%)
    Writing library : XviD 66
    Audio
    ID : 1
    Format : AC-3
    Format/Info : Audio Coding 3
    Mode extension : CM (complete main)
    Format settings, Endianness : Big
    Codec ID : 2000
    Duration : 2h 21mn
    Bit rate mode : Constant
    Bit rate : 384 Kbps
    Channel(s) : 6 channels
    Channel positions : Front: L C R, Side: L R, LFE
    Sampling rate : 48.0 KHz
    Frame rate : 31.250 fps (1536 spf)
    Compression mode : Lossy
    Stream size : 388 MiB (17%)
    Alignment : Split accross interleaves
    Interleave, duration : 42 ms (1.00 video frame)
    Interleave, preload duratio : 500 ms

    Скриншоты

    Скачать .torrent

    Скачать торрент-файл бесплатно и на максимальной скорости!

    Как скачивать? · Что такое торрент? · Рейтинг и ограничения

    !ВНИМАНИЕ!
    Сайт не распространяет и не хранит электронные версии произведений, а занимается лишь лишь предоставлением доступа к создаваемому пользователями каталогу ссылок на торрент-файлы, которые содержат только списки хеш-сумм, убедительная просьба с жалобами обращаться напрямую к пользователю. Файлы для обмена на трекере предоставлены пользователями сайта, и администрация не несёт ответственности за их содержание. Просьба не заливать файлы, защищенные авторскими правами, а также файлы нелегального содержания!


    _________________
    [Профиль] [ЛС]
    Показать сообщения:    
    Ответить на тему

    Текущее время: Сегодня, в 14:24

    Часовой пояс: GMT + 2



    Вы не можете начинать темы
    Вы не можете отвечать на сообщения
    Вы не можете редактировать свои сообщения
    Вы не можете удалять свои сообщения
    Вы не можете голосовать в опросах
    Вы не можете прикреплять файлы к сообщениям
    Вы не можете скачивать файлы