BitTorrentTracker PerecTracker.org
BitTorrentTracker PerecTracker.org
    
Регистрация  ·  Вход
 
 · 
Забыли пароль?

  • Развод в большом городе / What Maisie Knew (Скотт МакГихи / Scott McGehee, Дэвид Сигел / David Siegel) [2012, США, Психологическая драма, HDRip] MVO (1-й канал)

    Ответить на тему
     
    Автор Сообщение

    Light

    Создавать темы 23-Мар-2016 07:42

           

    [Цитировать]

    Развод в большом городе / What Maisie Knew
    Страна: США
    Жанр: Психологическая драма
    Год выпуска: 2012
    Продолжительность: 01:38:55
    Перевод: Профессиональный (многоголосый закадровый) 1-й канал [miha2154]
    Cубтитры: отсутствуют
    Оригинальная аудиодорожка: нет
    Режиссура: Скотт МакГихи / Scott McGehee, Дэвид Сигел / David Siegel.
    Актёры: Оната Април, Александр Скарсгард, Джулианна Мур, Джоэнна Вандерхам, Стив Куган, Сэди Рэй, Джесси Стоун Спадаччини, Диана Гарсиа, Амелия Кэмпбелл, Мэдди Кормэн, и др.
    Аннотация: Как это часто бывает, мама и папа не сошлись характерами. Но пока они это выясняли, у них успел родиться ребёнок. Этот ребёнок успел подрасти и пойти в начальную школу. Обычная девочка, обычный гадкий утёнок - как это часто бывает в таком возрасте...
    Расставшиеся родители ведут себя с дочерью так, что ей прямая дорога - стать гадкой лебедью во взрослой жизни. Однако девочка не поддаётся, и помощники ей нашлись - чтоб не поддаваться! Это один из бывших маминых мужей, а также бывшая няня, которая одновременно одна из бывших папиных жён...

    Качество видео: HDRip
    Формат видео: AVI
    Video: XviD 67 MPEG-4, 720x304 (2.35:1) 23.976 fps, ~925 kbps avg, 0.176 bit/pixel
    Аudio: MP-3 Joint stereo, CBR 128 kbps 2 ch, 48.0 KHz

    MediaInfo

    ОбщееПолное имя : V:\What_Maisie_Knew_2013_HDRip_[perectracker.org].aviФормат : AVIФормат/Информация : Audio Video InterleaveРазмер файла : 752 МбайтПродолжительность : 1 ч. 38 м.Общий поток : 1062 Кбит/секНазвание фильма : What_Maisie_Knew_2013_HDRip_[perectracker.org]Режиссёр : OGORODNIKOFFFЖанр : Психологическая драмаПрограмма кодирования : VirtualDubModRus 1.5.10.2 (build 2542/release)Формат оригинала/Имя : Фильмы 2011-2015Правообладатель : [url=profile.php?mode=viewprofile&u=38116300]http://perectracker.org/profile.php?mode=viewprofil...[/url]Примечание : Рип подготовлен 22 марта 2016 года
    ВидеоИдентификатор : 0Формат : MPEG-4 VisualПрофиль формата : Advanced Simple@L5Параметр BVOP формата : 1Параметр QPel формата : НетПараметр GMC формата : Без точки переходаПараметр матрицы формата : Default (H.263)Идентификатор кодека : DX50Идентификатор кодека/Подсказка : DivX 5Продолжительность : 1 ч. 38 м.Битрейт : 925 Кбит/секШирина : 720 пикселейВысота : 304 пикселяСоотношение сторон : 2,35:1Частота кадров : 23,976 кадра/секЦветовое пространство : YUVСубдискретизация насыщенности : 4:2:0Битовая глубина : 8 битТип развёртки : ПрогрессивнаяМетод сжатия : С потерямиБит/(Пиксели*Кадры) : 0.176Размер потока : 654 Мбайт (87%)Библиотека кодирования : XviD 67
    АудиоИдентификатор : 1Формат : MPEG AudioВерсия формата : Version 1Профиль формата : Layer 3Режим : Joint stereoРасширение режима : MS StereoИдентификатор кодека : 55Идентификатор кодека/Подсказка : MP3Продолжительность : 1 ч. 38 м.Вид битрейта : ПостоянныйБитрейт : 128 Кбит/секКаналы : 2 каналаЧастота : 48,0 КГцМетод сжатия : С потерямиРазмер потока : 90,6 Мбайт (12%)Выравнивание : Соединение по промежуткамПродолжительность промежутка : 42 мс. (1,00 видеокадр)Время предзагрузки промежутка : 504 мс.Библиотека кодирования : LAME3.99rНастройки программы : -m j -V 4 -q 3 -lowpass 17 -b 128

    Скриншот c названием фильма

    Скриншоты

    Время раздачи - по возможности.
    Скачать .torrent

    Скачать торрент-файл бесплатно и на максимальной скорости!

    Как скачивать? · Что такое торрент? · Рейтинг и ограничения

    !ВНИМАНИЕ!
    Сайт не распространяет и не хранит электронные версии произведений, а занимается лишь лишь предоставлением доступа к создаваемому пользователями каталогу ссылок на торрент-файлы, которые содержат только списки хеш-сумм, убедительная просьба с жалобами обращаться напрямую к пользователю. Файлы для обмена на трекере предоставлены пользователями сайта, и администрация не несёт ответственности за их содержание. Просьба не заливать файлы, защищенные авторскими правами, а также файлы нелегального содержания!


    _________________
    [Профиль] [ЛС]
    Показать сообщения:    
    Ответить на тему

    Текущее время: Сегодня, в 15:52

    Часовой пояс: GMT + 2



    Вы не можете начинать темы
    Вы не можете отвечать на сообщения
    Вы не можете редактировать свои сообщения
    Вы не можете удалять свои сообщения
    Вы не можете голосовать в опросах
    Вы не можете прикреплять файлы к сообщениям
    Вы не можете скачивать файлы