BitTorrentTracker PerecTracker.org
BitTorrentTracker PerecTracker.org
    
Регистрация  ·  Вход
 
 · 
Забыли пароль?

  • Мученицы / Martyrs (Кевин Гетц / Kevin Goetz / Майкл Гетц / Michael Goetz) [2015, США, Ужасы, Триллер, Драма, HDRip] Dub

    Ответить на тему
     
    Автор Сообщение

    Light

    Создавать темы 22-Мар-2016 19:16

           

    [Цитировать]

    Мученицы / Martyrs--Страна: США
    Жанр: Ужасы, Триллер, Драма
    Продолжительность: 01:26:25
    Год выпуска: 2015
    -Перевод: Профессиональный (дублированный) | iTunes
    Субтитры: нет
    Режиссёр: Кевин Гетц / Kevin Goetz / Майкл Гетц / Michael Goetz
    -В ролях:
    Тройэн Эвери Беллисарио, Кэйтлин Кармайкл, Кейт Бёртон, Бэйли Ноубл, Тоби Хасс, Лекси ДиБенедетто, Тейлор Джон Смит, Диана Хоппер, Блейк Роббинс, Питер Майкл Гец
    -Описание:
    Спустя год после своего исчезновения, десятилетняя Люси неожиданно находится. Девочка так напугана, что не может ни с кем разговаривать и рассказать, что же с ней произошло. Проходит 10 лет. Люси все еще продолжают посещать кошмары и она не оставляет попыток выяснить, что с ней тогда случилось. И когда она, наконец, вместе со своей подругой, приближается вплотную к разгадке тайны, то попадает в новую ловушку. Теперь, если им не удастся найти выход, им грозит страшная и мучительная смерть.
    -Сэмпл: https://www.sendspace.com/file/tjg8o3-Качество: HDRip - Исходник (Спасибо Ton-ik)
    Формат: AVI
    Видео: 688x288 (2.39:1), 23.976 fps, XviD build 50 ~1064 kbps avg, 0.22 bit/pixel
    Аудио: 48 kHz, MPEG Layer 3, 2 ch, ~128.00 kbps avg
    -

    Отчёт MediaInfo

    General
    Complete name : C:\Users\Максим\Desktop\Muchenicy.2015.HDRip.polkera.avi
    Format : AVI
    Format/Info : Audio Video Interleave
    File size : 743 MiB
    Duration : 1h 26mn
    Overall bit rate : 1 202 Kbps
    Writing application : VirtualDubMod 1.5.10.2 (build 2540/release)
    Writing library : VirtualDubMod build 2540/release
    Video
    Format : MPEG-4 Visual
    Format profile : Streaming Video@L1
    Format settings, BVOP : Yes
    Format settings, QPel : No
    Format settings, GMC : No warppoints
    Format settings, Matrix : Custom
    Codec ID : XVID
    Codec ID/Hint : XviD
    Duration : 1h 26mn
    Bit rate : 1 065 Kbps
    Width : 688 pixels
    Height : 288 pixels
    Display aspect ratio : 2.35
    Frame rate : 23.976 fps
    Resolution : 24 bits
    Colorimetry : 4:2:0
    Scan type : Progressive
    Bits/(Pixel*Frame) : 0.224
    Stream size : 658 MiB (89%)
    Writing library : XviD 1.2.1 (UTC 2008-12-04)
    Audio
    Format : MPEG Audio
    Format version : Version 1
    Format profile : Layer 3
    Codec ID : 55
    Codec ID/Hint : MP3
    Duration : 1h 26mn
    Bit rate mode : Constant
    Bit rate : 128 Kbps
    Channel(s) : 2 channels
    Sampling rate : 48.0 KHz
    Resolution : 16 bits
    Stream size : 79.1 MiB (11%)
    Alignment : Aligned on interleaves
    Interleave, duration : 42 ms (1.00 video frame)
    Interleave, preload duration : 504 ms
    Writing library : LAME3.98r
    Encoding settings : -m s -V 4 -q 2 -lowpass 17 -b 128

    -

    Скриншоты

    Скачать .torrent

    Скачать торрент-файл бесплатно и на максимальной скорости!

    Как скачивать? · Что такое торрент? · Рейтинг и ограничения

    !ВНИМАНИЕ!
    Сайт не распространяет и не хранит электронные версии произведений, а занимается лишь лишь предоставлением доступа к создаваемому пользователями каталогу ссылок на торрент-файлы, которые содержат только списки хеш-сумм, убедительная просьба с жалобами обращаться напрямую к пользователю. Файлы для обмена на трекере предоставлены пользователями сайта, и администрация не несёт ответственности за их содержание. Просьба не заливать файлы, защищенные авторскими правами, а также файлы нелегального содержания!


    _________________
    [Профиль] [ЛС]
    Показать сообщения:    
    Ответить на тему

    Текущее время: Сегодня, в 19:49

    Часовой пояс: GMT + 2



    Вы не можете начинать темы
    Вы не можете отвечать на сообщения
    Вы не можете редактировать свои сообщения
    Вы не можете удалять свои сообщения
    Вы не можете голосовать в опросах
    Вы не можете прикреплять файлы к сообщениям
    Вы не можете скачивать файлы