BitTorrentTracker PerecTracker.org
BitTorrentTracker PerecTracker.org
    
Регистрация  ·  Вход
 
 · 
Забыли пароль?

  • 90 минут на небесах / 90 Minutes in Heaven (Майкл Полиш / Michael Polish) [2015, США, драма, биография, HDRip] MVO (iTunes)

    Ответить на тему
     
    Автор Сообщение

    Light

    Создавать темы 22-Мар-2016 11:03

           

    [Цитировать]

    -90 минут на небесах / 90 Minutes in Heaven-Страна: США
    Жанр: драма, биография
    Год выпуска: 2015
    Продолжительность: 02:02:00
    Перевод: Профессиональный (многоголосый закадровый) iTunes
    Cубтитры: нет
    Режиссер: Майкл Полиш / Michael Polish-В ролях: Кейт Босворт, Хейден Кристенсен, Хадсон Мик, Бобби Батсон, Элизабет Хантер, Дэвид Клайд Карр, Катрин Карлен, Дуайт Йоакам, Майкл В. Смит, Джианна Саймон-Описание: Жизнь пастора Дона Пайпера, любящего супруга и отца, — образец домашнего уюта и счастья. Непрошеные перемены наступают, когда Дон попадает в автомобильную аварию. Бессильные спасатели лишь констатируют факт смерти и накрывают тело брезентом. Однако спустя полтора часа бригада реанимации возвращает Дона к жизни.
    Все это время душа Дона обретала покой, любовь и радость, каких никогда не знала прежде. Благодаря клинической смерти Дон приобретает мистический опыт, который заставляет его по-новому взглянуть на собственную жизнь. Но когда он возвращается в этот мир, дают о себе знать и печальные последствия аварии: Дон прикован к постели, и медицина не способна поставить его на ноги. Но после пережитого чуда Дон не намерен сдаваться. Заручившись поддержкой своей жены, он намерен преодолеть самые тяжелые испытания.
    --Качество видео: HDRip
    Формат видео: AVI
    Видео: 720x304 (2.35:1), 23.976 fps, XviD build 73 ~1306 kbps avg, 0.25 bit/pixel
    Аудио: AC3 Dolby Digital, 48 kHz, 384 kbps, 3/2 (L,C,R,l,r) + LFE chl-

    MediaInfo

    General
    Complete name : D:\Фильмы\90_min_na_nebesah_2015_HDRip.avi
    Format : AVI
    Format/Info : Audio Video Interleave
    File size : 1.45 GiB
    Duration : 2h 2mn
    Overall bit rate : 1 699 Kbps
    Writing application : VirtualDubMod 1.5.10.3 | www.virtualdub-fr.org || (build 2550/release)
    Writing library : VirtualDubMod build 2550/release
    Video
    ID : 0
    Format : MPEG-4 Visual
    Format profile : Advanced Simple@L5
    Format settings, BVOP : 1
    Format settings, QPel : No
    Format settings, GMC : No warppoints
    Format settings, Matrix : Custom
    Codec ID : XVID
    Codec ID/Hint : XviD
    Duration : 2h 2mn
    Bit rate : 1 306 Kbps
    Width : 720 pixels
    Height : 304 pixels
    Display aspect ratio : 2.35:1
    Frame rate : 23.976 (23976/1000) fps
    Color space : YUV
    Chroma subsampling : 4:2:0
    Bit depth : 8 bits
    Scan type : Progressive
    Compression mode : Lossy
    Bits/(Pixel*Frame) : 0.249
    Stream size : 1.11 GiB (77%)
    Writing library : XviD 73
    Audio
    ID : 1
    Format : AC-3
    Format/Info : Audio Coding 3
    Mode extension : CM (complete main)
    Format settings, Endianness : Big
    Codec ID : 2000
    Duration : 2h 1mn
    Bit rate mode : Constant
    Bit rate : 384 Kbps
    Channel(s) : 6 channels
    Channel positions : Front: L C R, Side: L R, LFE
    Sampling rate : 48.0 KHz
    Frame rate : 31.250 fps (1536 spf)
    Compression mode : Lossy
    Stream size : 335 MiB (23%)
    Alignment : Split accross interleaves
    Interleave, duration : 42 ms (1.00 video frame)
    Interleave, preload duratio : 500 ms

    -

    Скриншот c названием фильма

    Скриншоты

    -
    Скачать .torrent

    Скачать торрент-файл бесплатно и на максимальной скорости!

    Как скачивать? · Что такое торрент? · Рейтинг и ограничения

    !ВНИМАНИЕ!
    Сайт не распространяет и не хранит электронные версии произведений, а занимается лишь лишь предоставлением доступа к создаваемому пользователями каталогу ссылок на торрент-файлы, которые содержат только списки хеш-сумм, убедительная просьба с жалобами обращаться напрямую к пользователю. Файлы для обмена на трекере предоставлены пользователями сайта, и администрация не несёт ответственности за их содержание. Просьба не заливать файлы, защищенные авторскими правами, а также файлы нелегального содержания!


    _________________
    [Профиль] [ЛС]
    Показать сообщения:    
    Ответить на тему

    Текущее время: Сегодня, в 15:56

    Часовой пояс: GMT + 2



    Вы не можете начинать темы
    Вы не можете отвечать на сообщения
    Вы не можете редактировать свои сообщения
    Вы не можете удалять свои сообщения
    Вы не можете голосовать в опросах
    Вы не можете прикреплять файлы к сообщениям
    Вы не можете скачивать файлы