BitTorrentTracker PerecTracker.org
BitTorrentTracker PerecTracker.org
    
Регистрация  ·  Вход
 
 · 
Забыли пароль?

  • Голодные игры: Сойка-пересмешница. Часть II / The Hunger Games: Mockingjay - Part 2 (Френсис Лоуренс / Francis Lawrence) [2015, США, Фантастика, приключения, BDRip] Dub

    Ответить на тему
     
    Автор Сообщение

    Light

    Создавать темы 22-Мар-2016 11:03

           

    [Цитировать]

    Голодные игры: Сойка-пересмешница. Часть II / The Hunger Games: Mockingjay - Part 2
    «Да не угаснет пламя»
    -Год выхода: 2015
    Выпущено: США, Германия / Color Force, Lionsgate, Studio Babelsberg
    Жанр: фантастика, приключения
    Продолжительность: 02:16:57
    Перевод: Профессиональный (полное дублирование)
    Субтитры: нет-Режиссер:
    Френсис Лоуренс / Francis Lawrence-В ролях:
    Дженнифер Лоуренс, Джош Хатчерсон, Лиам Хемсворт, Вуди Харрельсон, Дональд Сазерленд, Филип Сеймур Хоффман, Джулианна Мур, Уиллоу Шилдс, Сэм Клафлин, Элизабет Бэнкс, Махершала Али, Джена Мэлоун, Джеффри Райт, Паула Малкомсон, Стэнли Туччи, Натали Дормер, Ивэн Росс, Элден Хенсон, Уэс Чэтэм, Эжени Бондюран-О фильме:
    Китнисс Эвердин и своенравный Пит Мелларк пытаются выиграть гражданскую войну между самодержавным Капитолием и истерзанными войной районами Панема…-Релиз групп
    | | IMDB | КиноПоиск | Сэмпл |-Качество: BDRip [The.Hunger.Games.Mockingjay.Part.2.2015.1080p.BluRay.AVC.TrueHD.7.1.Atmos-FGT]
    Формат: AVI
    Видео: 720x304 (2.37:1), 23.976 fps, XviD build 67 ~1331 kbps avg, 0.25 bit/pixel
    Аудио: 48 kHz, AC3 Dolby Digital, 2/0 (L,R) ch, ~192 kbps avg-

    Скриншоты

    -

    MediaInfo

    Общее
    Полное имя                               : D:\Golodnye_igry_Soika_Persmeshnica_II_2015_BDRip_by_Dalemake.avi
    Формат                                   : AVI
    Формат/Информация                        : Audio Video Interleave
    Размер файла                             : 1,47 Гбайт
    Продолжительность                        : 2 ч. 16 м.
    Общий поток                              : 1533 Кбит/сек
    Программа кодирования                    : VirtualDubMod 1.5.10.3 | www.virtualdub-fr.org || (build 2550/release)
    Библиотека кодирования                   : VirtualDubMod build 2550/release
    Видео
    Идентификатор                            : 0
    Формат                                   : MPEG-4 Visual
    Профиль формата                          : Advanced Simple@L5
    Параметр BVOP формата                    : 1
    Параметр QPel формата                    : Нет
    Параметр GMC формата                     : Без точки перехода
    Параметр матрицы формата                 : Выборочная
    Идентификатор кодека                     : XVID
    Идентификатор кодека/Подсказка           : XviD
    Продолжительность                        : 2 ч. 16 м.
    Битрейт                                  : 1331 Кбит/сек
    Ширина                                   : 720 пикселей
    Высота                                   : 304 пикселя
    Соотношение сторон                       : 2,35:1
    Частота кадров                           : 23,976 кадра/сек
    Цветовое пространство                    : YUV
    Субдискретизация насыщенности            : 4:2:0
    Битовая глубина                          : 8 бит
    Тип развёртки                            : Прогрессивная
    Метод сжатия                             : С потерями
    Бит/(Пиксели*Кадры)                      : 0.254
    Размер потока                            : 1,27 Гбайт (87%)
    Библиотека кодирования                   : XviD 67
    Аудио
    Идентификатор                            : 1
    Формат                                   : AC-3
    Формат/Информация                        : Audio Coding 3
    Расширение режима                        : CM (complete main)
    Параметр Endianness формата              : Big
    Идентификатор кодека                     : 2000
    Продолжительность                        : 2 ч. 16 м.
    Вид битрейта                             : Постоянный
    Битрейт                                  : 192 Кбит/сек
    Каналы                                   : 2 канала
    Расположение каналов                     : Front: L R
    Частота                                  : 48,0 КГц
    Метод сжатия                             : С потерями
    Размер потока                            : 188 Мбайт (13%)
    Выравнивание                             : Разделение по промежуткам
    Продолжительность промежутка             : 42  мс. (1,00 видеокадр)
    Время предзагрузки промежутка            : 500  мс.
    -
    Скачать .torrent

    Скачать торрент-файл бесплатно и на максимальной скорости!

    Как скачивать? · Что такое торрент? · Рейтинг и ограничения

    !ВНИМАНИЕ!
    Сайт не распространяет и не хранит электронные версии произведений, а занимается лишь лишь предоставлением доступа к создаваемому пользователями каталогу ссылок на торрент-файлы, которые содержат только списки хеш-сумм, убедительная просьба с жалобами обращаться напрямую к пользователю. Файлы для обмена на трекере предоставлены пользователями сайта, и администрация не несёт ответственности за их содержание. Просьба не заливать файлы, защищенные авторскими правами, а также файлы нелегального содержания!


    _________________
    [Профиль] [ЛС]
    Показать сообщения:    
    Ответить на тему

    Текущее время: Сегодня, в 07:14

    Часовой пояс: GMT + 2



    Вы не можете начинать темы
    Вы не можете отвечать на сообщения
    Вы не можете редактировать свои сообщения
    Вы не можете удалять свои сообщения
    Вы не можете голосовать в опросах
    Вы не можете прикреплять файлы к сообщениям
    Вы не можете скачивать файлы