BitTorrentTracker PerecTracker.org
BitTorrentTracker PerecTracker.org
    
Регистрация  ·  Вход
 
 · 
Забыли пароль?

  • [ATV3] Выживший / The Revenant (Алехандро Гонсалес Иньярриту / Alejandro González Iñárritu ) [2015, США, Триллер, драма, приключения, вестерн, WEB-DL, HD (1080p)] DUB (rus, ukr) + Original + sub (rus, eng, ukr)

    Ответить на тему
     
    Автор Сообщение

    rechyn

    Создавать темы 22-Мар-2016 02:44

           

    [Цитировать]

    Выживший / The Revenant
    «До последней капли крови»
    7.924 / 10 8.20 / 10
    -Год выпуска: 2015
    Страна: США
    Жанр: Триллер, драма, приключения, вестерн
    Продолжительность: 2:36
    Перевод: Дублированный (iTunes)
    Оригинальная аудиодорожка: Есть
    Cубтитры: Русские форсированные, Английские форсированные, Украинские форсированные, Русские, Английские, Украинские
    Режиссёр: Алехандро Гонсалес Иньярриту
    Сценарий: Марк Л. Смит, Алехандро Гонсалес Иньярриту, Майкл Панке
    Продюсер: Стив Голин, Арнон Милчен, Мэри Пэрент
    Оператор: Эммануэль Любецки
    Композитор: Карстен Николай, Рюити Сакамото
    Художник: Джек Фиск, Лорел Бергман, Майкл Динер
    Монтаж: Стивен Миррионе
    В ролях: Леонардо ДиКаприо, Том Харди, Донал Глисон, Уилл Поултер, Форрест Гудлак, Пол Андерсон, Кристоффер Йонер, Джошуа Бёрдж, Дуан Ховард, Мила Нахеко
    Бюджет: $135 000 000
    Сборы в США: $181 161 538
    Сборы в мире: + $302 035 058 = $483 196 596
    Сборы в России: $14 981 612
    Мировая премьера: 16 декабря 2015
    Премьера (РФ): 7 января 2016, «Двадцатый Век Фокс СНГ»
    Описание: Охотник Хью Гласс серьезно ранен на неизведанных просторах американского Дикого Запада. Товарищ Хью по отряду покорителей новых земель Джон Фицжеральд предательски оставляет его умирать в одиночестве. Теперь у Гласса осталось только одно оружие — его сила воли. Он готов бросить вызов первобытной природе, суровой зиме и враждебным племенам индейцев, только чтобы выжить и отомстить Фицжеральду.-Качество исходника: WEB-DL 1080p (BlueBird)
    Качество: WEB-DL
    Тип: HD (1080p)
    Контейнер: M4V
    Видео: H.264, 1916x792, 2.40:1, 4 496 Kbps, 23.976 fps
    Аудио 1: Русский/Дублированный (iTunes), AAC / 2.0 / 157 Kbps / 48.0 KHz
    Аудио 2: Английский/Оригинальная дорожка , AAC / 2.0 / 156 Kbps / 48.0 KHz
    Аудио 3: Украинский/Дублированный (iTunes), AAC / 2.0 / 159 Kbps / 48.0 KHz
    Аудио 4: Русский/Дублированный (iTunes), AC-3 / 5.1 / 384 Kbps / 48.0 KHz
    Субтитры 1: Русские форсированные
    Субтитры 2: Английские форсированные
    Субтитры 3: Украинские форсированные
    Субтитры 4: Русские полные
    Субтитры 5: Английские полные
    Субтитры 6: Украинские полные
    -

    iTunes Meta Tags

    Sort Name: Revenant
    XID: Apple:vendor_id:2015-522941
    contentID: 1067140154
    Copyright: © 2015 Twentieth Century Fox Film Corporation. All rights reserved.
    Screenwriters: Марк Л. Смит, Алехандро Гонсалес Иньярриту, Майкл Панке
    Producers: Стив Голин, Дэвид Кантер, Арнон Милчен
    Director: Алехандро Гонсалес Иньярриту
    Cast: Леонардо ДиКаприо, Том Харди, Донал Глисон, Уилл Поултер, Форрест Гудлак, Пол Андерсон, Кристоффер Йонер, Джошуа Бёрдж, Дуан Ховард, Мила Нахеко
    Studio: 20th Century Fox
    Rating Annotation: Rated R for strong frontier combat and violence including gore images, a sexual assault, language and brief nudity.
    Rating: 5
    Long Description: Охотник Хью Гласс серьезно ранен на неизведанных просторах американского Дикого Запада. Товарищ Хью по отряду покорителей новых земель Джон Фицжеральд предательски оставляет его умирать в одиночестве. Теперь у Гласса осталось только одно оружие - его сила воли. Он готов бросить вызов первобытной природе, суровой зиме и враждебным племенам индейцев, только чтобы выжить и отомстить Фицжеральду.
    Description: Охотник Хью Гласс серьезно ранен на неизведанных просторах американского Дикого Запада. Товарищ Хью по отряду покорителей новых земель Джон Фицжеральд предательски оставляет его умирать в одиночестве. Теперь у Гласса осталось только одно оружие - его сила воли. Он готов бросить вызов первобытной природе, суровой зиме и враждебным племенам индейцев, только чтобы выжить и отомстить Фицжеральду.
    Release Date: 2015-12-16T08:00:00Z
    Genre: Drama
    Artist: Alejandro González Iñárritu
    Name: The Revenant

    MediaInfo

    General
    Complete name : /Users/imac/HandBrake/The.Revenant.WEB-DL.1080p.m4v
    Format : MPEG-4
    Codec ID : M4V  (M4V /M4A /mp42/isom)
    File size : 5.88 GiB
    Duration : 2h 36mn
    Overall bit rate mode : Variable
    Overall bit rate : 5 362 Kbps
    Movie name : The Revenant
    Performer : Alejandro González Iñárritu
    Director : Алехандро Гонсалес Иньярриту
    Actor : Леонардо ДиКаприо / Том Харди / Донал Глисон / Уилл Поултер / Форрест Гудлак / Пол Андерсон / Кристоффер Йонер / Джошуа Бёрдж / Дуан Ховард / Мила Нахеко
    Screenplay by : Марк Л. Смит / Алехандро Гонсалес Иньярриту / Майкл Панке
    Producer : Стив Голин / Дэвид Кантер / Арнон Милчен
    Production studio : 20th Century Fox
    Genre : Drama
    ContentType : Short Film
    Description : Охотник Хью Гласс серьезно ранен на неизведанных просторах американского Дикого Запада. Товарищ Хью по отряду покорителей новых земель Джон Фицжеральд предательски оставляет его умирать в одиночестве. Теперь у Гласса осталось только одно оружие - его сила воли. Он готов бросить вызов первобытной природе, суровой зиме и враждебным племенам индейцев, только чтобы выжить и отомстить Фицжеральду.
    Recorded date : UTC 2015-12-16 08:00:00
    Encoded date : UTC 2016-03-21 22:38:30
    Tagged date : UTC 2016-03-21 22:40:59
    Copyright : © 2015 Twentieth Century Fox Film Corporation. All rights reserved.
    Cover : Yes
    Rating : None
    Title/Sort : Revenant
    LongDescription : Охотник Хью Гласс серьезно ранен на неизведанных просторах американского Дикого Запада. Товарищ Хью по отряду покорителей новых земель Джон Фицжеральд предательски оставляет его умирать в одиночестве. Теперь у Гласса осталось только одно оружие - его сила воли. Он готов бросить вызов первобытной природе, суровой зиме и враждебным племенам индейцев, только чтобы выжить и отомстить Фицжеральду.
    AppleStoreCatalogID : 1067140154
    Vendor : Apple:vendor_id:2015-522941
    ContentRating : mpaa|R|400|Rated R for strong frontier combat and violence including gore images, a sexual assault, language and brief nudity.
    Video #1
    ID : 1
    Format : AVC
    Format/Info : Advanced Video Codec
    Format profile : High@L4
    Format settings, CABAC : Yes
    Format settings, ReFrames : 5 frames
    Codec ID : avc1
    Codec ID/Info : Advanced Video Coding
    Duration : 2h 36mn
    Bit rate : 4 496 Kbps
    Width : 1 916 pixels
    Height : 792 pixels
    Display aspect ratio : 2.40:1
    Frame rate mode : Variable
    Frame rate : 23.976 fps
    Minimum frame rate : 23.256 fps
    Maximum frame rate : 25.000 fps
    Color space : YUV
    Chroma subsampling : 4:2:0
    Bit depth : 8 bits
    Scan type : Progressive
    Bits/(Pixel*Frame) : 0.124
    Stream size : 4.93 GiB (84%)
    Title : Main Program
    Language : English
    Encoded date : UTC 2016-03-21 22:38:30
    Tagged date : UTC 2016-03-21 22:38:40
    Color range : Limited
    Color primaries : BT.709
    Transfer characteristics : BT.709
    Matrix coefficients : BT.709
    Menus : 12,13
    Video #2
    ID : 13
    Format : JPEG
    Codec ID : jpeg
    Duration : 2h 36mn
    Bit rate mode : Variable
    Bit rate : 1 063 bps
    Width : 640 pixels
    Height : 264 pixels
    Display aspect ratio : 2.40:1
    Frame rate mode : Variable
    Frame rate : 0.003 fps
    Minimum frame rate : 0.001 fps
    Maximum frame rate : 0.006 fps
    Color space : YUV
    Chroma subsampling : 4:2:0
    Bit depth : 8 bits
    Compression mode : Lossy
    Bits/(Pixel*Frame) : 2.097
    Stream size : 1.01 MiB (0%)
    Title : Chapter Images
    Language : English
    Default : No
    Encoded date : UTC 2016-03-21 22:38:52
    Tagged date : UTC 2016-03-21 22:38:53
    Menu For : 1
    Audio #1
    ID : 2
    Format : AAC
    Format/Info : Advanced Audio Codec
    Format profile : LC
    Codec ID : 40
    Duration : 2h 36mn
    Bit rate mode : Variable
    Bit rate : 157 Kbps
    Maximum bit rate : 236 Kbps
    Channel(s) : 2 channels
    Channel positions : Front: L R
    Sampling rate : 48.0 KHz
    Frame rate : 46.875 fps (1024 spf)
    Compression mode : Lossy
    Stream size : 176 MiB (3%)
    Title : Russian Stereo
    Language : Russian
    Default : Yes
    Alternate group : 1
    Encoded date : UTC 2016-03-21 22:38:30
    Tagged date : UTC 2016-03-21 22:38:43
    Fallback From : 5
    Subtitles : 6,9
    Audio #2
    ID : 3
    Format : AAC
    Format/Info : Advanced Audio Codec
    Format profile : LC
    Codec ID : 40
    Duration : 2h 36mn
    Bit rate mode : Variable
    Bit rate : 156 Kbps
    Maximum bit rate : 236 Kbps
    Channel(s) : 2 channels
    Channel positions : Front: L R
    Sampling rate : 48.0 KHz
    Frame rate : 46.875 fps (1024 spf)
    Compression mode : Lossy
    Stream size : 175 MiB (3%)
    Title : English Stereo
    Language : English
    Default : No
    Alternate group : 1
    Encoded date : UTC 2016-03-21 22:38:30
    Tagged date : UTC 2016-03-21 22:38:43
    Subtitles : 7,10
    Audio #3
    ID : 4
    Format : AAC
    Format/Info : Advanced Audio Codec
    Format profile : LC
    Codec ID : 40
    Duration : 2h 36mn
    Bit rate mode : Variable
    Bit rate : 159 Kbps
    Maximum bit rate : 242 Kbps
    Channel(s) : 2 channels
    Channel positions : Front: L R
    Sampling rate : 48.0 KHz
    Frame rate : 46.875 fps (1024 spf)
    Compression mode : Lossy
    Stream size : 177 MiB (3%)
    Title : Ukrainian Stereo
    Language : Ukrainian
    Default : No
    Alternate group : 1
    Encoded date : UTC 2016-03-21 22:38:30
    Tagged date : UTC 2016-03-21 22:38:43
    Subtitles : 8,11
    Audio #4
    ID : 5
    Format : AC-3
    Format/Info : Audio Coding 3
    Mode extension : CM (complete main)
    Format settings, Endianness : Big
    Codec ID : ac-3
    Duration : 2h 36mn
    Bit rate mode : Constant
    Bit rate : 384 Kbps
    Channel(s) : 6 channels
    Channel positions : Front: L C R, Side: L R, LFE
    Sampling rate : 48.0 KHz
    Frame rate : 31.250 fps (1536 spf)
    Bit depth : 16 bits
    Compression mode : Lossy
    Stream size : 429 MiB (7%)
    Title : Russian DD 5.1
    Language : Russian
    Default : Inherited From: 2
    Alternate group : 1
    Encoded date : UTC 2016-03-21 22:38:30
    Tagged date : UTC 2016-03-21 22:38:40
    Fallback To : 2
    Subtitles : 6,9
    Text #1
    ID : 6
    Format : Timed Text
    Muxing mode : sbtl
    Codec ID : tx3g
    Duration : 2h 36mn
    Bit rate mode : Variable
    Bit rate : 6 bps
    Stream size : 7.06 KiB (0%)
    Title : Russian Forced
    Language : Russian
    Default : Yes
    Forced : Yes
    Alternate group : 2
    Encoded date : UTC 2016-03-21 22:38:30
    Tagged date : UTC 2016-03-21 22:38:40
    Subtitles For : 2,5
    Full Alternative : 9
    Text #2
    ID : 7
    Format : Timed Text
    Muxing mode : sbtl
    Codec ID : tx3g
    Duration : 2h 22mn
    Bit rate mode : Variable
    Bit rate : 4 bps
    Stream size : 4.47 KiB (0%)
    Title : English Forced
    Language : English
    Default : No
    Forced : Yes
    Alternate group : 2
    Encoded date : UTC 2016-03-21 22:38:30
    Tagged date : UTC 2016-03-21 22:38:40
    Subtitles For : 3
    Full Alternative : 10
    Text #3
    ID : 8
    Format : Timed Text
    Muxing mode : sbtl
    Codec ID : tx3g
    Duration : 2h 36mn
    Bit rate mode : Variable
    Bit rate : 6 bps
    Stream size : 6.77 KiB (0%)
    Title : Ukrainian Forced
    Language : Ukrainian
    Default : No
    Forced : Yes
    Alternate group : 2
    Encoded date : UTC 2016-03-21 22:38:30
    Tagged date : UTC 2016-03-21 22:38:40
    Subtitles For : 4
    Full Alternative : 11
    Text #4
    ID : 9
    Format : Timed Text
    Muxing mode : sbtl
    Codec ID : tx3g
    Duration : 2h 36mn
    Bit rate mode : Variable
    Bit rate : 41 bps
    Stream size : 46.7 KiB (0%)
    Title : Russian Full-length
    Language : Russian
    Default : No
    Forced : No
    Alternate group : 2
    Encoded date : UTC 2016-03-21 22:38:30
    Tagged date : UTC 2016-03-21 22:38:40
    Subtitles For : 2,5
    Forced Alternative : 6
    Text #5
    ID : 10
    Format : Timed Text
    Muxing mode : sbtl
    Codec ID : tx3g
    Duration : 2h 22mn
    Bit rate mode : Variable
    Bit rate : 29 bps
    Stream size : 30.2 KiB (0%)
    Title : English Full-length
    Language : English
    Default : No
    Forced : No
    Alternate group : 2
    Encoded date : UTC 2016-03-21 22:38:30
    Tagged date : UTC 2016-03-21 22:38:40
    Subtitles For : 3
    Forced Alternative : 7
    Text #6
    ID : 11
    Format : Timed Text
    Muxing mode : sbtl
    Codec ID : tx3g
    Duration : 2h 36mn
    Bit rate mode : Variable
    Bit rate : 42 bps
    Stream size : 48.2 KiB (0%)
    Title : Ukrainian Full-length
    Language : Ukrainian
    Default : No
    Forced : No
    Alternate group : 2
    Encoded date : UTC 2016-03-21 22:38:30
    Tagged date : UTC 2016-03-21 22:38:40
    Subtitles For : 4
    Forced Alternative : 8
    Menu #1
    00:00:00.000 : 1
    00:05:04.846 : 2
    00:07:58.311 : 3
    00:13:18.964 : 4
    00:21:10.685 : 5
    00:28:21.657 : 6
    00:37:07.766 : 7
    00:44:00.345 : 8
    00:48:14.974 : 9
    00:51:42.264 : 10
    00:56:51.031 : 11
    00:59:50.752 : 12
    01:03:31.764 : 13
    01:11:52.431 : 14
    01:16:36.131 : 15
    01:21:22.375 : 16
    01:28:31.137 : 17
    01:37:29.967 : 18
    01:48:44.641 : 19
    01:53:08.780 : 20
    01:59:05.928 : 21
    02:02:56.700 : 22
    02:15:45.260 : 23
    02:22:51.019 : 24
    Menu #2
    ID : 12
    Codec ID : text
    Duration : 2h 36mn
    Language : English
    Encoded date : UTC 2016-03-21 22:38:44
    Tagged date : UTC 2016-03-21 22:38:44
    Menu For : 1
    00:00:00.000 : 1
    00:05:04.846 : 2
    00:07:58.311 : 3
    00:13:18.964 : 4
    00:21:10.685 : 5
    00:28:21.657 : 6
    00:37:07.766 : 7
    00:44:00.345 : 8
    00:48:14.974 : 9
    00:51:42.264 : 10
    00:56:51.031 : 11
    00:59:50.752 : 12
    01:03:31.764 : 13
    01:11:52.431 : 14
    01:16:36.131 : 15
    01:21:22.375 : 16
    01:28:31.137 : 17
    01:37:29.967 : 18
    01:48:44.641 : 19
    01:53:08.780 : 20
    01:59:05.928 : 21
    02:02:56.700 : 22
    02:15:45.260 : 23
    02:22:51.019 : 24
    Bit rate mode : VBR

    Скриншоты

    -

    Релиз подготовлен для просмотра на Apple TV, iPad, iPhone, iPod Touch.
    Для просмотра данного релиза на компьютере с ОС Windows рекомендуется использовать VLC media player
    Скачать .torrent

    Скачать торрент-файл бесплатно и на максимальной скорости!

    Как скачивать? · Что такое торрент? · Рейтинг и ограничения

    !ВНИМАНИЕ!
    Сайт не распространяет и не хранит электронные версии произведений, а занимается лишь лишь предоставлением доступа к создаваемому пользователями каталогу ссылок на торрент-файлы, которые содержат только списки хеш-сумм, убедительная просьба с жалобами обращаться напрямую к пользователю. Файлы для обмена на трекере предоставлены пользователями сайта, и администрация не несёт ответственности за их содержание. Просьба не заливать файлы, защищенные авторскими правами, а также файлы нелегального содержания!


    _________________
    [Профиль] [ЛС]
    Показать сообщения:    
    Ответить на тему

    Текущее время: Сегодня, в 11:09

    Часовой пояс: GMT + 2



    Вы не можете начинать темы
    Вы не можете отвечать на сообщения
    Вы не можете редактировать свои сообщения
    Вы не можете удалять свои сообщения
    Вы не можете голосовать в опросах
    Вы не можете прикреплять файлы к сообщениям
    Вы не можете скачивать файлы