BitTorrentTracker PerecTracker.org
BitTorrentTracker PerecTracker.org
    
Регистрация  ·  Вход
 
 · 
Забыли пароль?

  • Развод в большом городе / What Maisie Knew (Скотт МакГихи / Scott McGehee, Дэвид Сигел / David Siegel) [2013, США, Психологическая драма, HDRip] MVO (1-й канал) + MVO (online movies) + Sud Rus, Eng + Original Eng

    Ответить на тему
     
    Автор Сообщение

    Light

    Создавать темы 22-Мар-2016 02:44

           

    [Цитировать]

    Развод в большом городе / What Maisie Knew
    Страна: США
    Жанр: Психологическая драма
    Год выпуска: 2012
    Продолжительность: 01:38:55
    Перевод #1: Профессиональный (многоголосый закадровый) 1-й канал
    Перевод #2: Профессиональный (многоголосый закадровый) online movies
    Cубтитры: русские, английские (SubRip format) отдельно вложенные
    Оригинальная аудиодорожка: английский отдельно вложенная
    Режиссура: Скотт МакГихи / Scott McGehee, Дэвид Сигел / David Siegel.
    Актёры: Оната Април, Александр Скарсгард, Джулианна Мур, Джоэнна Вандерхам, Стив Куган, Сэди Рэй, Джесси Стоун Спадаччини, Диана Гарсиа, Амелия Кэмпбелл, Мэдди Кормэн, и др.
    Аннотация: Как это часто бывает, мама и папа не сошлись характерами. Но пока они это выясняли, у них успел родиться ребёнок. Этот ребёнок успел подрасти и пойти в начальную школу. Обычная девочка, обычный гадкий утёнок - как это часто бывает в таком возрасте...
    Расставшиеся родители ведут себя с дочерью так, что ей прямая дорога - стать гадкой лебедью во взрослой жизни. Однако девочка не поддаётся, и помощники ей нашлись - чтоб не поддаваться! Это один из бывших маминых мужей, а также бывшая няня, которая одновременно одна из бывших папиных жён...

    Качество видео: HDRip
    Формат видео: AVI
    Video: XviD 64 MPEG-4, 720x304 (2.35:1) 23.976 fps, ~1724 kbps avg, 0.329 bit/pixel
    Аudio #1: AC-3 Dolby Digital, CBR 192 kbps 2 ch (Front: L R) 48.0 KHz Russian MVO 1-й канал
    Аudio #2: AC-3 Dolby Digital, CBR 192 kbps 2 ch (Front: L R) 48.0 KHz Russian MVO online movies
    Аudio #3: AC-3 Dolby Digital, CBR 448 kbps 6 ch (Front: L C R, Side: L R, LFE) 48.0 KHz Original English отдельно

    MediaInfo

    ОбщееПолное имя : P:\What_Maisie_Knew_2013_HDRip_[perectracker.org]\What_Maisie_Knew_2013_HDRip_[perectracker.org].aviФормат : AVIФормат/Информация : Audio Video InterleaveРазмер файла : 1,47 ГбайтПродолжительность : 1 ч. 38 м.Общий поток : 2123 Кбит/секНазвание фильма : What_Maisie_Knew_2012_HDRip_[perectracker.org]Жанр : Психологическая драмаПрограмма кодирования : VirtualDubModRus 1.5.10.2 (build 2542/release)Формат оригинала/Имя : Фильмы 2011-2015Примечание : 20 марта 2016 г.
    ВидеоИдентификатор : 0Формат : MPEG-4 VisualПрофиль формата : Advanced Simple@L5Параметр BVOP формата : 2Параметр QPel формата : НетПараметр GMC формата : Без точки переходаПараметр матрицы формата : Default (H.263)Идентификатор кодека : DX50Идентификатор кодека/Подсказка : DivX 5Продолжительность : 1 ч. 38 м.Битрейт : 1724 Кбит/секШирина : 720 пикселейВысота : 304 пикселяСоотношение сторон : 2,35:1Частота кадров : 23,976 кадра/секЦветовое пространство : YUVСубдискретизация насыщенности : 4:2:0Битовая глубина : 8 битТип развёртки : ПрогрессивнаяМетод сжатия : С потерямиБит/(Пиксели*Кадры) : 0.329Размер потока : 1,19 Гбайт (81%)Библиотека кодирования : XviD 64
    Аудио #1Идентификатор : 1Формат : AC-3Формат/Информация : Audio Coding 3Расширение режима : CM (complete main)Параметр Endianness формата : BigИдентификатор кодека : 2000Продолжительность : 1 ч. 38 м.Вид битрейта : ПостоянныйБитрейт : 192 Кбит/секКаналы : 2 каналаРасположение каналов : Front: L RЧастота : 48,0 КГцБитовая глубина : 16 битМетод сжатия : С потерямиРазмер потока : 136 Мбайт (9%)Выравнивание : Разделение по промежуткамПродолжительность промежутка : 42 мс. (1,00 видеокадр)Время предзагрузки промежутка : 500 мс.
    Аудио #2Идентификатор : 2Формат : AC-3Формат/Информация : Audio Coding 3Расширение режима : CM (complete main)Параметр Endianness формата : BigИдентификатор кодека : 2000Продолжительность : 1 ч. 38 м.Вид битрейта : ПостоянныйБитрейт : 192 Кбит/секКаналы : 2 каналаРасположение каналов : Front: L RЧастота : 48,0 КГцБитовая глубина : 16 битМетод сжатия : С потерямиРазмер потока : 136 Мбайт (9%)Выравнивание : Разделение по промежуткамПродолжительность промежутка : 42 мс. (1,00 видеокадр)Время предзагрузки промежутка : 500 мс.
    ОбщееПолное имя : P:\What_Maisie_Knew_2013_HDRip_[perectracker.org]\What_Maisie_Knew_2013_HDRip_[perectracker.org].eng.ac3Формат : AC-3Формат/Информация : Audio Coding 3Размер файла : 317 МбайтПродолжительность : 1 ч. 38 м.Режим общего битрейта : ПостоянныйОбщий поток : 448 Кбит/сек
    АудиоФормат : AC-3Формат/Информация : Audio Coding 3Расширение режима : CM (complete main)Параметр Endianness формата : BigПродолжительность : 1 ч. 38 м.Вид битрейта : ПостоянныйБитрейт : 448 Кбит/секКаналы : 6 каналовРасположение каналов : Front: L C R, Side: L R, LFEЧастота : 48,0 КГцБитовая глубина : 16 битМетод сжатия : С потерямиРазмер потока : 317 Мбайт (100%)
    ОбщееПолное имя : P:\What_Maisie_Knew_2013_HDRip_[perectracker.org]\What_Maisie_Knew_2013_HDRip_[perectracker.org].eng.srtФормат : SubRipРазмер файла : 86,9 Кбайт
    ТекстФормат : SubRipМетод сжатия : Без потерь
    ОбщееПолное имя : P:\What_Maisie_Knew_2013_HDRip_[perectracker.org]\What_Maisie_Knew_2013_HDRip_[perectracker.org].rus.srtФормат : SubRipРазмер файла : 84,4 Кбайт
    ТекстФормат : SubRipМетод сжатия : Без потерь

    Скриншот c названием фильма

    Скриншоты

    Время раздачи - по возможности.
    Скачать .torrent

    Скачать торрент-файл бесплатно и на максимальной скорости!

    Как скачивать? · Что такое торрент? · Рейтинг и ограничения

    !ВНИМАНИЕ!
    Сайт не распространяет и не хранит электронные версии произведений, а занимается лишь лишь предоставлением доступа к создаваемому пользователями каталогу ссылок на торрент-файлы, которые содержат только списки хеш-сумм, убедительная просьба с жалобами обращаться напрямую к пользователю. Файлы для обмена на трекере предоставлены пользователями сайта, и администрация не несёт ответственности за их содержание. Просьба не заливать файлы, защищенные авторскими правами, а также файлы нелегального содержания!


    _________________
    [Профиль] [ЛС]
    Показать сообщения:    
    Ответить на тему

    Текущее время: Сегодня, в 20:56

    Часовой пояс: GMT + 2



    Вы не можете начинать темы
    Вы не можете отвечать на сообщения
    Вы не можете редактировать свои сообщения
    Вы не можете удалять свои сообщения
    Вы не можете голосовать в опросах
    Вы не можете прикреплять файлы к сообщениям
    Вы не можете скачивать файлы