BitTorrentTracker PerecTracker.org
BitTorrentTracker PerecTracker.org
    
Регистрация  ·  Вход
 
 · 
Забыли пароль?

  • Волна / Bølgen (Роар Утхауг / Roar Uthaug) [2015, Норвегия, боевик, триллер, драма, BDRemux 1080p] MVO + Dub (iTunes Russia) + Sub Rus, Nor, Eng + Original Nor

    Ответить на тему
     
    Автор Сообщение

    Light

    Создавать темы 22-Мар-2016 02:44

           

    [Цитировать]

    Волна / BølgenСтрана: Норвегия
    Жанр: боевик, триллер, драма
    Год выпуска: 2015
    Продолжительность: 01:44:55
    Перевод 1: Профессиональный (дублированный) (iTunes Russia)
    Перевод 2: Профессиональный (многоголосый закадровый)
    Cубтитры: русские , норвежкие, англисские
    Оригинальная аудиодорожка: норвежский
    Режиссер: Роар Утхауг / Roar Uthaug
    В ролях: Томас Бо Ларсен, Кристоффер Йонер, Эни Даль Торп, Фридтьов Сохейм, Йонас Хофф Офтебро, Ладо Хаджик, Артур Бернинг, Эдит Хогенруд-Сэнд, Элли Харбоа, Метта Агнета Хорн
    Описание: Сигнал тревоги разносится над спящим городом. То, чего так боялись сейсмологи, сбылось — сильнейший тектонический сдвиг вызывает обрушение горного массива. Теперь гигантское смертоносное цунами движется прямо на людей. Опытный геолог Кристиан Айкорд оказывается в эпицентре самого страшного кошмара своей жизни.
    Сэмпл: http://sendfile.su/1215720
    Тип релиза: BDRemux 1080p
    Контейнер: MKV
    Видео: MPEG-4 AVC Video /23962 / 1080p / 24 fps / 16:9 / High Profile 4.1
    Аудио 1: Dolby Digital Audio / 5.1 / 48 kHz / 384 kbps - Russian
    Аудио 2: Dolby Digital Audio / 5.1 / 48 kHz / 448 kbps - Russian
    Аудио 3: DTS-HD Master Audio / 5.1 / 48 kHz / 4072 kbps / 24-bit (DTS Core: 5.1 / 48 kHz / 1509 kbps / 24-bit)
    Формат субтитров: softsub (SRT)

    MediaInfo

    бщее
    Уникальный идентификатор : 195812037999932509939721480357364103148 (0x935006D8CBF8E7D68D93AC815907F7EC)
    Полное имя : E:\Релизы Rutracker.org\Bolgen 2015 1080p Blu-ray ReMuX perectracker.org.mkv
    Формат : Matroska
    Версия формата : Version 4 / Version 2
    Размер файла : 21,2 Гбайт
    Продолжительность : 1 ч. 44 м.
    Режим общего битрейта : Переменный
    Общий поток : 28,9 Мбит/сек
    Название фильма : Bolgen 2015 1080p Blu-ray ReMuX perectracker.org
    Дата кодирования : UTC 2016-03-18 17:13:22
    Программа кодирования : mkvmerge v6.1.0 ('Old Devil') built on Mar 4 2013 09:10:42
    Библиотека кодирования : libebml v1.3.0 + libmatroska v1.4.0
    DURATION : 01:44:54.464000000
    NUMBER_OF_FRAMES : 196702
    NUMBER_OF_BYTES : 352489984
    _STATISTICS_WRITING_APP : mkvmerge v8.3.0 ('Over the Horizon') 64bit
    _STATISTICS_WRITING_DATE_UTC : 2015-12-08 17:30:32
    _STATISTICS_TAGS : BPS DURATION NUMBER_OF_FRAMES NUMBER_OF_BYTES
    Attachment : Yes / Yes / Yes / Yes
    Видео
    Идентификатор : 1
    Формат : AVC
    Формат/Информация : Advanced Video Codec
    Профиль формата : High@L4.1
    Параметр CABAC формата : Да
    Параметр ReFrames формата : 3 кадра
    Идентификатор кодека : V_MPEG4/ISO/AVC
    Продолжительность : 1 ч. 44 м.
    Вид битрейта : Переменный
    Максимальный битрейт : 30,0 Мбит/сек
    Ширина : 1920 пикселей
    Высота : 1080 пикселей
    Соотношение сторон : 16:9
    Режим частоты кадров : Постоянный
    Частота кадров : 24,000 кадра/сек
    Стандарт вещания : NTSC
    Цветовое пространство : YUV
    Субдискретизация насыщенности : 4:2:0
    Битовая глубина : 8 бит
    Тип развёртки : Прогрессивная
    Default : Да
    Forced : Нет
    Основные цвета : BT.709
    Характеристики трансфера : BT.709
    Коэффициенты матрицы : BT.709
    Аудио #1
    Идентификатор : 2
    Формат : AC-3
    Формат/Информация : Audio Coding 3
    Расширение режима : CM (complete main)
    Параметр Endianness формата : Big
    Идентификатор кодека : A_AC3
    Продолжительность : 1 ч. 44 м.
    Вид битрейта : Постоянный
    Битрейт : 384 Кбит/сек
    Каналы : 6 каналов
    Расположение каналов : Front: L C R, Side: L R, LFE
    Частота : 48,0 КГц
    Битовая глубина : 16 бит
    Метод сжатия : С потерями
    Размер потока : 288 Мбайт (1%)
    Заголовок : Профессиональный (дублированный) - iTunes Russia
    Язык : Russian
    Default : Нет
    Forced : Нет
    Аудио #2
    Идентификатор : 3
    Формат : AC-3
    Формат/Информация : Audio Coding 3
    Расширение режима : CM (complete main)
    Параметр Endianness формата : Big
    Идентификатор кодека : A_AC3
    Продолжительность : 1 ч. 44 м.
    Вид битрейта : Постоянный
    Битрейт : 448 Кбит/сек
    Каналы : 6 каналов
    Расположение каналов : Front: L C R, Side: L R, LFE
    Частота : 48,0 КГц
    Битовая глубина : 16 бит
    Метод сжатия : С потерями
    Размер потока : 336 Мбайт (2%)
    Заголовок : Профессиональный (многоголосый закадровый)
    Язык : Russian
    Default : Да
    Forced : Нет
    Аудио #3
    Идентификатор : 4
    Формат : DTS
    Формат/Информация : Digital Theater Systems
    Профиль формата : MA / Core
    Режим : 16
    Параметр Endianness формата : Big
    Идентификатор кодека : A_DTS
    Продолжительность : 1 ч. 44 м.
    Вид битрейта : Переменный
    Битрейт : Неизвестно / 1509 Кбит/сек
    Каналы : 6 каналов
    Расположение каналов : Front: L C R, Side: L R, LFE
    Частота : 48,0 КГц
    Битовая глубина : 24 бит
    Метод сжатия : Без потерь / Lossy
    Язык : Norwegian
    Default : Нет
    Forced : Нет
    Текст #1
    Идентификатор : 5
    Формат : UTF-8
    Идентификатор кодека : S_TEXT/UTF8
    Идентификатор кодека/Информация : UTF-8 Plain Text
    Язык : Russian
    Default : Нет
    Forced : Нет
    Текст #2
    Идентификатор : 6
    Формат : UTF-8
    Идентификатор кодека : S_TEXT/UTF8
    Идентификатор кодека/Информация : UTF-8 Plain Text
    Язык : Norwegian
    Default : Нет
    Forced : Нет
    Текст #3
    Идентификатор : 7
    Формат : UTF-8
    Идентификатор кодека : S_TEXT/UTF8
    Идентификатор кодека/Информация : UTF-8 Plain Text
    Язык : English
    Default : Нет
    Forced : Нет

    Скриншоты

    Скачать .torrent

    Скачать торрент-файл бесплатно и на максимальной скорости!

    Как скачивать? · Что такое торрент? · Рейтинг и ограничения

    !ВНИМАНИЕ!
    Сайт не распространяет и не хранит электронные версии произведений, а занимается лишь лишь предоставлением доступа к создаваемому пользователями каталогу ссылок на торрент-файлы, которые содержат только списки хеш-сумм, убедительная просьба с жалобами обращаться напрямую к пользователю. Файлы для обмена на трекере предоставлены пользователями сайта, и администрация не несёт ответственности за их содержание. Просьба не заливать файлы, защищенные авторскими правами, а также файлы нелегального содержания!


    _________________
    [Профиль] [ЛС]
    Показать сообщения:    
    Ответить на тему

    Текущее время: Сегодня, в 14:43

    Часовой пояс: GMT + 2



    Вы не можете начинать темы
    Вы не можете отвечать на сообщения
    Вы не можете редактировать свои сообщения
    Вы не можете удалять свои сообщения
    Вы не можете голосовать в опросах
    Вы не можете прикреплять файлы к сообщениям
    Вы не можете скачивать файлы