BitTorrentTracker PerecTracker.org
BitTorrentTracker PerecTracker.org
    
Регистрация  ·  Вход
 
 · 
Забыли пароль?

  • Мерцающий / The Glimmer Man (Джон Грэй / John Gray) [1996, США, боевик, триллер, комедия, криминал, WEB-DL 720p] 2x Dub (Мост-Видео, Варус-Видео) + 2x MVO (OPT, Россия) + DVO (HTB) + 3x AVO (Гаврилов, Визгунов, Кашкин) + Original Eng + Sub Rus, Eng

    Ответить на тему
     
    Автор Сообщение

    Light

    Создавать темы 22-Мар-2016 02:44

           

    [Цитировать]

    Мерцающий / The Glimmer Man«Двое хороших полицейских. Одна скверная ситуация»_________________________________________________________________________________________
    Страна: США
    Студия: Warner Bros., Seagal/Nasso Productions
    Жанр: боевик, триллер, драма, комедия, криминал
    Год выпуска: 1996
    Продолжительность: 01:31:21
    Перевод 1: Профессиональный (дублированный) |Мост-Видео|
    Перевод 2: Профессиональный (дублированный) |Варус-Видео|
    Перевод 3: Профессиональный (многоголосый закадровый) |OPT (1 канал)|
    Перевод 4: Профессиональный (многоголосый закадровый) |Россия|
    Перевод 5: Профессиональный (двухголосый закадровый) |HTB|
    Перевод 6: Авторский (одноголосый закадровый) |А. Гаврилов|
    Перевод 7: Авторский (одноголосый закадровый) |С. Визгунов|
    Перевод 8: Авторский (одноголосый закадровый) |А. Кашкин|
    Оригинальная аудиодорожка: английский
    Cубтитры: русские, английские
    Режиссер: Джон Грэй / John Gray
    В ролях: Стивен Сигал (Lt. Jack Cole), Кинен Айвори Уайанс (Det. Jim Campbell), Боб Гантон (Frank Deverell), Брайан Кокс (Mr. Smith), Джон М. Джексон (Donald Cunningham), Мишель Джонсон (Jessica Cole), Стивен Тоболовски (Christopher Maynard), Питер Джейсон (Millie's Father), Райан Кутрона (Capt. Harris), Ричард Гант (Det. Roden)
    Описание: Перед полицейским управлением Лос-Анджелеса поставлена задача: найти и обезвредить преступника, на счету которого немало жертв. Непосредственно по следу убийцы идут два сыщика: Джек Коул и Джим Кэмпбелл. В таком ответственном и рискованном деле, как охота на убийцу, от партнера зависит многое, а иногда все. Однако именно эти двое полицейских решительно неспособны понять друг друга. Суровый и немногословный Коул, воспитанный на восточной философии и боевых искусствах, не может не удивляться своему напарнику, балагуру и шутнику. А Кэмпбелла, как человека здравомыслящего и житейски опытного, раздражает постоянная склонность партнера к мордобою и прочим резким действиям. Порой ему вообще начинает казаться, что преступник, которого они ищут, не кто иной, как его напарник Коул.
    _________________________________________________________________________________________

    Тип релиза: WEB-DL 720p
    Контейнер: MKV
    Видео: 1276x720 at 23.976 fps, MPEG-4 AVC, ~4000 kbps avg
    Аудио 01: Russian: 48 kHz, AC3, 3/2 (L,C,R,l,r) + LFE ch, ~384 kbps avg |Дубляж, Мост-Видео|
    Аудио 02: Russian: 48 kHz, AC3, 2/0 (L,R), ~192 kbps avg |Дубляж, Варус-Видео|
    Аудио 03: Russian: 48 kHz, AC3, 2/0 (L,R), ~192 kbps avg |Многоголосый, OPT|
    Аудио 04: Russian: 48 kHz, AC3, 2/0 (L,R), ~192 kbps avg |Многоголосый, Первый канал|
    Аудио 05: Russian: 48 kHz, AC3, 2/0 (L,R), ~192 kbps avg |Многоголосый, Россия / РЕН ТВ / ТВ3|
    Аудио 06: Russian: 48 kHz, AC3, 2/0 (L,R), ~192 kbps avg |Двухголосый, HTB|
    Аудио 07: Russian: 48 kHz, AC3, 3/2 (L,C,R,l,r) + LFE ch, ~384 kbps avg |Одноголосый, А. Гаврилов|
    Аудио 08: Russian: 48 kHz, AC3, 2/0 (L,R), ~192 kbps avg |Одноголосый, С. Визгунов|
    Аудио 09: Russian: 48 kHz, AC3, 2/0 (L,R), ~192 kbps avg |Одноголосый, А. Кашкин|
    Аудио 10: English: 48 kHz, AC3, 3/2 (L,C,R,l,r) + LFE ch, ~384 kbps avg |Original, from DVD|
    Аудио 11: English: 48 kHz, AAC, 2/0 (L,R) ch, ~160.00 kbps avg |Original, iTunes|
    Cубтитры: Russian (forced, full), English
    Цитата:
    Цитата:

    • За исходный WEB-DL спасибо - HDClub
    • За оцифровку переводов Варус-Видео и Первый канал спасибо - waren aka usoi
    • За запись перевода Россия с показа по ТВ3 спасибо - JUSTKANT
    • За оцифровку перевода НТВ спасибо - серый75 и JUSTKANT
      Перевод НТВ имеет несколько вставок дубляжа Мост-Видео на тех местах, где звук прерывался.
    • За оцифровку перевода А. Кашкина спасибо - Ansent
    • За оцифровку перевода С. Визгунова спасибо - Kino-profan
    • P.S. Переводы ОРТ и Первый канал одинаковые по смыслу но разные по тембру звучания.
      Перевод ОРТ или очищен или запись со спутника, так что добавил оба.

    MediaInfo

    General
    Unique ID : 245850667824873151000580598011798891876 (0xB8F51DC5E98D814B99612FC4A3F22D64)
    Complete name : D:\The.Glimmer.Man.1996.720p.WEB-DL.9xRus.2xEng.mkv
    Format : Matroska
    Format version : Version 4 / Version 2
    File size : 4.27 GiB
    Duration : 1h 31mn
    Overall bit rate : 6 689 Kbps
    Movie name : Мерцающий / The Glimmer Man (1996)
    Encoded date : UTC 2016-03-19 08:51:16
    Writing application : mkvmerge v8.9.0 ('Father Daughter') 64bit
    Writing library : libebml v1.3.3 + libmatroska v1.4.4
    Cover : Yes
    Attachments : cover.jpg
    Video
    ID : 1
    Format : AVC
    Format/Info : Advanced Video Codec
    Format profile : High@L3.1
    Format settings, CABAC : No
    Format settings, ReFrames : 2 frames
    Format settings, GOP : N=1
    Codec ID : V_MPEG4/ISO/AVC
    Duration : 1h 31mn
    Bit rate : 4 044 Kbps
    Width : 1 276 pixels
    Height : 720 pixels
    Display aspect ratio : 16:9
    Frame rate mode : Constant
    Frame rate : 23.976 (23976/1000) fps
    Color space : YUV
    Chroma subsampling : 4:2:0
    Bit depth : 8 bits
    Scan type : Progressive
    Bits/(Pixel*Frame) : 0.184
    Stream size : 2.58 GiB (60%)
    Title : Мерцающий / The Glimmer Man (1996) WEB-DL 720p
    Language : English
    Default : Yes
    Forced : No
    Color range : Limited
    Color primaries : BT.709
    Transfer characteristics : BT.709
    Matrix coefficients : BT.709
    Audio #1
    ID : 2
    Format : AC-3
    Format/Info : Audio Coding 3
    Mode extension : CM (complete main)
    Format settings, Endianness : Big
    Codec ID : A_AC3
    Duration : 1h 31mn
    Bit rate mode : Constant
    Bit rate : 384 Kbps
    Channel(s) : 6 channels
    Channel positions : Front: L C R, Side: L R, LFE
    Sampling rate : 48.0 KHz
    Frame rate : 31.250 fps (1536 spf)
    Compression mode : Lossy
    Stream size : 251 MiB (6%)
    Title : Дубляж, Мост-Видео (iTunes)[Fixed]
    Language : Russian
    Default : Yes
    Forced : No
    Audio #2
    ID : 3
    Format : AC-3
    Format/Info : Audio Coding 3
    Mode extension : CM (complete main)
    Format settings, Endianness : Big
    Codec ID : A_AC3
    Duration : 1h 31mn
    Bit rate mode : Constant
    Bit rate : 192 Kbps
    Channel(s) : 2 channels
    Channel positions : Front: L R
    Sampling rate : 48.0 KHz
    Frame rate : 31.250 fps (1536 spf)
    Compression mode : Lossy
    Stream size : 125 MiB (3%)
    Title : Дубляж, Варус-Видео
    Language : Russian
    Default : No
    Forced : No
    Audio #3
    ID : 4
    Format : AC-3
    Format/Info : Audio Coding 3
    Mode extension : CM (complete main)
    Format settings, Endianness : Big
    Codec ID : A_AC3
    Duration : 1h 31mn
    Bit rate mode : Constant
    Bit rate : 192 Kbps
    Channel(s) : 2 channels
    Channel positions : Front: L R
    Sampling rate : 48.0 KHz
    Frame rate : 31.250 fps (1536 spf)
    Compression mode : Lossy
    Stream size : 125 MiB (3%)
    Title : Многоголосый, OPT
    Language : Russian
    Default : No
    Forced : No
    Audio #4
    ID : 5
    Format : AC-3
    Format/Info : Audio Coding 3
    Mode extension : CM (complete main)
    Format settings, Endianness : Big
    Codec ID : A_AC3
    Duration : 1h 30mn
    Bit rate mode : Constant
    Bit rate : 192 Kbps
    Channel(s) : 2 channels
    Channel positions : Front: L R
    Sampling rate : 48.0 KHz
    Frame rate : 31.250 fps (1536 spf)
    Compression mode : Lossy
    Stream size : 124 MiB (3%)
    Title : Многоголосый, Первый канал
    Language : Russian
    Default : No
    Forced : No
    Audio #5
    ID : 6
    Format : AC-3
    Format/Info : Audio Coding 3
    Mode extension : CM (complete main)
    Format settings, Endianness : Big
    Codec ID : A_AC3
    Duration : 1h 30mn
    Bit rate mode : Constant
    Bit rate : 192 Kbps
    Channel(s) : 2 channels
    Channel positions : Front: L R
    Sampling rate : 48.0 KHz
    Frame rate : 31.250 fps (1536 spf)
    Compression mode : Lossy
    Stream size : 124 MiB (3%)
    Title : Многоголосый, Россия / РЕН ТВ / ТВ3
    Language : Russian
    Default : No
    Forced : No
    Audio #6
    ID : 7
    Format : AC-3
    Format/Info : Audio Coding 3
    Mode extension : CM (complete main)
    Format settings, Endianness : Big
    Codec ID : A_AC3
    Duration : 1h 30mn
    Bit rate mode : Constant
    Bit rate : 192 Kbps
    Channel(s) : 2 channels
    Channel positions : Front: L R
    Sampling rate : 48.0 KHz
    Frame rate : 31.250 fps (1536 spf)
    Compression mode : Lossy
    Stream size : 124 MiB (3%)
    Title : Двухголосый, HTB
    Language : Russian
    Default : No
    Forced : No
    Audio #7
    ID : 8
    Format : AC-3
    Format/Info : Audio Coding 3
    Mode extension : CM (complete main)
    Format settings, Endianness : Big
    Codec ID : A_AC3
    Duration : 1h 31mn
    Bit rate mode : Constant
    Bit rate : 384 Kbps
    Channel(s) : 6 channels
    Channel positions : Front: L C R, Side: L R, LFE
    Sampling rate : 48.0 KHz
    Frame rate : 31.250 fps (1536 spf)
    Compression mode : Lossy
    Stream size : 251 MiB (6%)
    Title : Одноголосый, А. Гаврилов
    Language : Russian
    Default : No
    Forced : No
    Audio #8
    ID : 9
    Format : AC-3
    Format/Info : Audio Coding 3
    Mode extension : CM (complete main)
    Format settings, Endianness : Big
    Codec ID : A_AC3
    Duration : 1h 31mn
    Bit rate mode : Constant
    Bit rate : 192 Kbps
    Channel(s) : 2 channels
    Channel positions : Front: L R
    Sampling rate : 48.0 KHz
    Frame rate : 31.250 fps (1536 spf)
    Compression mode : Lossy
    Stream size : 125 MiB (3%)
    Title : Одноголосый, С. Визгунов
    Language : Russian
    Default : No
    Forced : No
    Audio #9
    ID : 10
    Format : AC-3
    Format/Info : Audio Coding 3
    Mode extension : CM (complete main)
    Format settings, Endianness : Big
    Codec ID : A_AC3
    Duration : 1h 30mn
    Bit rate mode : Constant
    Bit rate : 192 Kbps
    Channel(s) : 2 channels
    Channel positions : Front: L R
    Sampling rate : 48.0 KHz
    Frame rate : 31.250 fps (1536 spf)
    Compression mode : Lossy
    Stream size : 124 MiB (3%)
    Title : Одноголосый, А. Кашкин
    Language : Russian
    Default : No
    Forced : No
    Audio #10
    ID : 11
    Format : AC-3
    Format/Info : Audio Coding 3
    Mode extension : CM (complete main)
    Format settings, Endianness : Big
    Codec ID : A_AC3
    Duration : 1h 31mn
    Bit rate mode : Constant
    Bit rate : 384 Kbps
    Channel(s) : 6 channels
    Channel positions : Front: L C R, Side: L R, LFE
    Sampling rate : 48.0 KHz
    Frame rate : 31.250 fps (1536 spf)
    Compression mode : Lossy
    Stream size : 251 MiB (6%)
    Title : Original (from DVD)
    Language : English
    Default : No
    Forced : No
    Audio #11
    ID : 12
    Format : AAC
    Format/Info : Advanced Audio Codec
    Format profile : LC
    Codec ID : A_AAC
    Duration : 1h 31mn
    Bit rate : 156 Kbps
    Channel(s) : 2 channels
    Channel positions : Front: L R
    Sampling rate : 48.0 KHz
    Frame rate : 46.875 fps (1024 spf)
    Compression mode : Lossy
    Stream size : 102 MiB (2%)
    Title : Original (iTunes)
    Language : English
    Default : No
    Forced : No
    Text #1
    ID : 13
    Format : UTF-8
    Codec ID : S_TEXT/UTF8
    Codec ID/Info : UTF-8 Plain Text
    Duration : 1h 25mn
    Bit rate : 1 bps
    Count of elements : 24
    Stream size : 769 Bytes (0%)
    Title : Forced
    Language : Russian
    Default : Yes
    Forced : No
    Text #2
    ID : 14
    Format : UTF-8
    Codec ID : S_TEXT/UTF8
    Codec ID/Info : UTF-8 Plain Text
    Duration : 1h 27mn
    Bit rate : 90 bps
    Count of elements : 1061
    Stream size : 58.2 KiB (0%)
    Language : Russian
    Default : No
    Forced : No
    Text #3
    ID : 15
    Format : UTF-8
    Codec ID : S_TEXT/UTF8
    Codec ID/Info : UTF-8 Plain Text
    Duration : 1h 25mn
    Bit rate : 63 bps
    Count of elements : 1054
    Stream size : 39.6 KiB (0%)
    Language : English
    Default : No
    Forced : No
    Menu
    00:00:00.000 : en:Chapter 1
    00:02:07.000 : en:Chapter 2
    00:04:32.000 : en:Chapter 3
    00:08:31.000 : en:Chapter 4
    00:09:39.000 : en:Chapter 5
    00:10:58.000 : en:Chapter 6
    00:13:20.000 : en:Chapter 7
    00:15:28.000 : en:Chapter 8
    00:19:43.000 : en:Chapter 9
    00:23:14.000 : en:Chapter 10
    00:26:04.000 : en:Chapter 11
    00:27:23.000 : en:Chapter 12
    00:30:19.000 : en:Chapter 13
    00:35:36.000 : en:Chapter 14
    00:37:09.000 : en:Chapter 15
    00:41:29.000 : en:Chapter 16
    00:44:31.000 : en:Chapter 17
    00:45:40.000 : en:Chapter 18
    00:46:48.000 : en:Chapter 19
    00:49:56.000 : en:Chapter 20
    00:52:45.000 : en:Chapter 21
    00:55:08.000 : en:Chapter 22
    00:57:52.000 : en:Chapter 23
    01:01:05.000 : en:Chapter 24
    01:06:37.000 : en:Chapter 25
    01:10:25.000 : en:Chapter 26
    01:12:35.000 : en:Chapter 27
    01:15:05.000 : en:Chapter 28
    01:16:19.000 : en:Chapter 29
    01:17:32.000 : en:Chapter 30
    01:19:31.000 : en:Chapter 31
    01:22:54.000 : en:Chapter 32
    01:24:17.000 : en:Chapter 33
    01:28:24.000 : en:Chapter 34

    Скриншоты


    Скачать .torrent

    Скачать торрент-файл бесплатно и на максимальной скорости!

    Как скачивать? · Что такое торрент? · Рейтинг и ограничения

    !ВНИМАНИЕ!
    Сайт не распространяет и не хранит электронные версии произведений, а занимается лишь лишь предоставлением доступа к создаваемому пользователями каталогу ссылок на торрент-файлы, которые содержат только списки хеш-сумм, убедительная просьба с жалобами обращаться напрямую к пользователю. Файлы для обмена на трекере предоставлены пользователями сайта, и администрация не несёт ответственности за их содержание. Просьба не заливать файлы, защищенные авторскими правами, а также файлы нелегального содержания!


    _________________
    [Профиль] [ЛС]
    Показать сообщения:    
    Ответить на тему

    Текущее время: Сегодня, в 18:49

    Часовой пояс: GMT + 2



    Вы не можете начинать темы
    Вы не можете отвечать на сообщения
    Вы не можете редактировать свои сообщения
    Вы не можете удалять свои сообщения
    Вы не можете голосовать в опросах
    Вы не можете прикреплять файлы к сообщениям
    Вы не можете скачивать файлы