BitTorrentTracker PerecTracker.org
BitTorrentTracker PerecTracker.org
    
Регистрация  ·  Вход
 
 · 
Забыли пароль?

  • Тюремный эксперимент в Стэнфорде / The Stanford Prison Experiment (Кайл Патрик Альварез / Kyle Patrick Alvarez) [2015, США, Триллер, драма, биография, история, HDRip] Dub (Line) + Original Eng

    Ответить на тему
     
    Автор Сообщение

    Light

    Создавать темы 21-Мар-2016 18:20

           

    [Цитировать]

    -Тюремный эксперимент в Стэнфорде / The Stanford Prison Experiment-Страна: США
    Жанр: Триллер, драма, биография, история
    Год выпуска: 2015
    Продолжительность: 02:01:53
    Перевод: Профессиональный (дублированный) Line
    Cубтитры: нет
    Оригинальная аудиодорожка: английский-Режиссер: Кайл Патрик Альварез / Kyle Patrick Alvarez-В ролях: Билли Крудап, Майкл Ангарано, Мойзес Ариас, Николас Браун, Гай Чарльз, Кейр Гилкрист, Ки Хонг Ли, Томас Манн, Эзра Миллер, Логан Миллер, Тай Шеридан, Джонни Симмонс-Описание: В основу фильма положен эксперимент американского психолога. Он выбрал добровольцев, которые сыграли роль надзирателей и заключенных, и устроил им в одном корпусе настоящую тюрьму. Люди быстро освоились и, к огромному удивлению психолога, стали вести себя непредсказуемо. К чему приведет вышедший из-под контроля эксперимент?--Качество видео: HDRip
    Формат видео: AVI
    Видео: XviD 720x304 23.98fps 1950kbps
    Аудио: Rus: 48 kHz, AC3 Dolby Digital, 2/0 (L,R) ch, ~224 kbps
    Аудио 2: Eng: 48 kHz, AC3 Dolby Digital, 2/0 (L,R) ch, ~224 kbps-

    MediaInfo

    General
    Complete name : D:\Фильмы\Тюремный эксперимент в Стэнфорде.avi
    Format : AVI
    Format/Info : Audio Video Interleave
    Format profile : OpenDML
    File size : 2.06 GiB
    Duration : 2h 1mn
    Overall bit rate : 2 417 Kbps
    Writing application : VirtualDubMod 1.5.10.2 (build 2540/release)
    Writing library : VirtualDubMod build 2540/release
    Video
    ID : 0
    Format : MPEG-4 Visual
    Format profile : Advanced Simple@L5
    Format settings, BVOP : 2
    Format settings, QPel : No
    Format settings, GMC : No warppoints
    Format settings, Matrix : Default (MPEG)
    Codec ID : XVID
    Codec ID/Hint : XviD
    Duration : 2h 1mn
    Bit rate : 1 950 Kbps
    Width : 720 pixels
    Height : 304 pixels
    Display aspect ratio : 2.35:1
    Frame rate : 23.976 (24000/1001) fps
    Color space : YUV
    Chroma subsampling : 4:2:0
    Bit depth : 8 bits
    Scan type : Progressive
    Compression mode : Lossy
    Bits/(Pixel*Frame) : 0.372
    Stream size : 1.66 GiB (81%)
    Writing library : XviD 1.2.1 (UTC 2008-12-04)
    Audio #1
    ID : 1
    Format : AC-3
    Format/Info : Audio Coding 3
    Mode extension : CM (complete main)
    Format settings, Endianness : Big
    Codec ID : 2000
    Duration : 2h 1mn
    Bit rate mode : Constant
    Bit rate : 224 Kbps
    Channel(s) : 2 channels
    Channel positions : Front: L R
    Sampling rate : 48.0 KHz
    Frame rate : 31.250 fps (1536 spf)
    Compression mode : Lossy
    Stream size : 195 MiB (9%)
    Alignment : Split accross interleaves
    Interleave, duration : 42 ms (1.00 video frame)
    Interleave, preload duratio : 500 ms
    Audio #2
    ID : 2
    Format : AC-3
    Format/Info : Audio Coding 3
    Mode extension : CM (complete main)
    Format settings, Endianness : Big
    Codec ID : 2000
    Duration : 2h 1mn
    Bit rate mode : Constant
    Bit rate : 224 Kbps
    Channel(s) : 2 channels
    Channel positions : Front: L R
    Sampling rate : 48.0 KHz
    Frame rate : 31.250 fps (1536 spf)
    Compression mode : Lossy
    Stream size : 195 MiB (9%)
    Alignment : Split accross interleaves
    Interleave, duration : 42 ms (1.00 video frame)
    Interleave, preload duratio : 500 ms

    -

    Скриншот c названием фильма

    Скриншоты

    -
    Скачать .torrent

    Скачать торрент-файл бесплатно и на максимальной скорости!

    Как скачивать? · Что такое торрент? · Рейтинг и ограничения

    !ВНИМАНИЕ!
    Сайт не распространяет и не хранит электронные версии произведений, а занимается лишь лишь предоставлением доступа к создаваемому пользователями каталогу ссылок на торрент-файлы, которые содержат только списки хеш-сумм, убедительная просьба с жалобами обращаться напрямую к пользователю. Файлы для обмена на трекере предоставлены пользователями сайта, и администрация не несёт ответственности за их содержание. Просьба не заливать файлы, защищенные авторскими правами, а также файлы нелегального содержания!


    _________________
    [Профиль] [ЛС]
    Показать сообщения:    
    Ответить на тему

    Текущее время: Сегодня, в 22:34

    Часовой пояс: GMT + 2



    Вы не можете начинать темы
    Вы не можете отвечать на сообщения
    Вы не можете редактировать свои сообщения
    Вы не можете удалять свои сообщения
    Вы не можете голосовать в опросах
    Вы не можете прикреплять файлы к сообщениям
    Вы не можете скачивать файлы