BitTorrentTracker PerecTracker.org
BitTorrentTracker PerecTracker.org
    
Регистрация  ·  Вход
 
 · 
Забыли пароль?

  • Мара и Носитель Огня / Mara und der Feuerbringer (Томми Краппвайс / Tommy Krappweis) [2015, Германия, фэнтези, BDRip 720p] MVO + VO (Вадим Назаров) + Sub Ger, Eng + Original Ger

    Ответить на тему
     
    Автор Сообщение

    Light

    Создавать темы 21-Мар-2016 14:08

           

    [Цитировать]

    Мара и Носитель Огня / Mara und der Feuerbringer
    Страна: Германия
    Студия: Constantin Film
    Жанр: Фэнтези
    Год выпуска: 2015
    Продолжительность: 01:33:57
    Перевод: Любительский (многоголосый закадровый) [Paradox & Omskbird records]
    Перевод (2): Одноголосый закадровый Вадим Назаров
    Cубтитры: немецкие, английские
    Оригинальная аудиодорожка: немецкий
    Режиссер: Томми Краппвайс / Tommy Krappweis
    В ролях: Лилиан Прент, Ян Йозеф Лиферс, Эстер Швайнс, Кристоф Мария Хербст, Ева Хаберманн, Алекс Симон, Карин С. Тайце, Йозеф Ханнесшлагер, Леони Тепе, Мориц Фишер
    Описание: Мара – самая обыкновенная, на первый взгляд, пятнадцатилетняя школьница, которой далеко не всегда удаётся находить общий язык со сверстницами. В последнее время героиню всё чаще стали мучить странные ведения о средневековых сражениях. Она уверена, что это всего лишь плод её бурного воображения, но вскоре девушке предстоит осознать истинную сущность своих ведений. Однажды ей удаётся буквально переместиться в другой мир и узнать историю полубога Локи, который был повержен своим братом Тором и теперь вынужден вечность томиться в заточении и мучиться от боли.
    Пытаясь хоть как-то разобраться в ситуации, Мара обращается за помощью к профессору Вэйссингеру, который специализируется на скандинавской мифологии. Вначале профессор уверен, что девушка выдумала все свои рассказы, но вскоре Маре удаётся вместе с ним переместиться в другое измерение и стать свидетелями эпичной битвы между Локи и Тором. Впереди героев ждут встречи с мифическими существами, сражение с самым настоящим драконом и решающая битва против огненного демона, который задумал уничтожить весь мир. Спасти положение дел может лишь Мара, которая смогла овладеть большими силами и теперь способна дать бой злу.

    Сэмпл: https://www.sendspace.com/file/ujma70
    Тип релиза: BDRip 720p
    Контейнер: MKV
    Видео: 1280 X 534 (2.40:1); 5500 kbps; 24.000 fps; 0.335 bpp
    Аудио: Russian: AC3 5.1, 640 kb/s, 48.0 kHz
    Аудио 2: Russian: DTS 5.1, 1509 kbps, 24 bit, 48.0kHz
    Аудио 3: German: DTS 5.1, 1509 kbps, 24 bit, 48.0kHz
    Формат субтитров: softsub (SRT)

    MediaInfo

    Формат : Matroska
    Версия формата : Version 4 / Version 2
    Размер файла : 6,01 Гбайт
    Продолжительность : 1 ч. 33 м.
    Общий поток : 9159 Кбит/сек
    Дата кодирования : UTC 2016-03-21 02:44:01
    Программа кодирования : mkvmerge v8.0.0 ('Til The Day That I Die') 64bit
    Библиотека кодирования : libebml v1.3.1 + libmatroska v1.4.2
    DURATION : 01:27:42.999000000
    NUMBER_OF_FRAMES : 1034
    NUMBER_OF_BYTES : 38371
    _STATISTICS_WRITING_APP : mkvmerge v8.0.0 ('Til The Day That I Die') 64bit
    _STATISTICS_WRITING_DATE_UTC : 2016-03-21 02:44:01
    _STATISTICS_TAGS : BPS DURATION NUMBER_OF_FRAMES NUMBER_OF_BYTES
    Видео
    Идентификатор : 1
    Формат : AVC
    Формат/Информация : Advanced Video Codec
    Профиль формата : High@L4.1
    Параметр CABAC формата : Да
    Параметр ReFrames формата : 12 кадров
    Идентификатор кодека : V_MPEG4/ISO/AVC
    Продолжительность : 1 ч. 33 м.
    Битрейт : 5500 Кбит/сек
    Ширина : 1280 пикселей
    Высота : 534 пикселя
    Соотношение сторон : 2,40:1
    Режим частоты кадров : Постоянный
    Частота кадров : 24,000 кадра/сек
    Цветовое пространство : YUV
    Субдискретизация насыщенности : 4:2:0
    Битовая глубина : 8 бит
    Тип развёртки : Прогрессивная
    Бит/(Пиксели*Кадры) : 0.335
    Размер потока : 3,49 Гбайт (58%)
    Библиотека кодирования : x264 core 142 r2479 dd79a61
    Настройки программы : cabac=1 / ref=12 / deblock=1:0:0 / analyse=0x3:0x113 / me=umh / subme=10 / psy=1 / psy_rd=1.05:0.10 / mixed_ref=1 / me_range=32 / chroma_me=1 / trellis=2 / 8x8dct=1 / cqm=0 / deadzone=21,11 / fast_pskip=0 / chroma_qp_offset=-2 / threads=12 / lookahead_threads=1 / sliced_threads=0 / nr=0 / decimate=1 / interlaced=0 / bluray_compat=0 / constrained_intra=0 / bframes=6 / b_pyramid=2 / b_adapt=2 / b_bias=0 / direct=3 / weightb=1 / open_gop=0 / weightp=2 / keyint=250 / keyint_min=24 / scenecut=40 / intra_refresh=0 / rc=2pass / mbtree=0 / bitrate=5500 / ratetol=1.0 / qcomp=0.70 / qpmin=0 / qpmax=69 / qpstep=4 / cplxblur=20.0 / qblur=0.5 / ip_ratio=1.40 / pb_ratio=1.30 / aq=2:1.00
    Язык : German
    Default : Да
    Forced : Нет
    DURATION : 01:33:57.000000000
    NUMBER_OF_FRAMES : 135288
    NUMBER_OF_BYTES : 3873430922
    _STATISTICS_WRITING_APP : mkvmerge v8.0.0 ('Til The Day That I Die') 64bit
    _STATISTICS_WRITING_DATE_UTC : 2016-03-21 02:44:01
    _STATISTICS_TAGS : BPS DURATION NUMBER_OF_FRAMES NUMBER_OF_BYTES
    Аудио #1
    Идентификатор : 2
    Формат : AC-3
    Формат/Информация : Audio Coding 3
    Расширение режима : CM (complete main)
    Параметр Endianness формата : Big
    Идентификатор кодека : A_AC3
    Продолжительность : 1 ч. 33 м.
    Вид битрейта : Постоянный
    Битрейт : 640 Кбит/сек
    Каналы : 6 каналов
    Расположение каналов : Front: L C R, Side: L R, LFE
    Частота : 48,0 КГц
    Битовая глубина : 16 бит
    Метод сжатия : С потерями
    Размер потока : 430 Мбайт (7%)
    Заголовок : Paradox & Omskbird records AC3 5.1, 640 kbps
    Язык : Russian
    Default : Да
    Forced : Нет
    Аудио #2
    Идентификатор : 3
    Формат : DTS
    Формат/Информация : Digital Theater Systems
    Режим : 16
    Параметр Endianness формата : Big
    Идентификатор кодека : A_DTS
    Продолжительность : 1 ч. 33 м.
    Вид битрейта : Постоянный
    Битрейт : 1509 Кбит/сек
    Каналы : 6 каналов
    Расположение каналов : Front: L C R, Side: L R, LFE
    Частота : 48,0 КГц
    Битовая глубина : 24 бит
    Метод сжатия : С потерями
    Размер потока : 1014 Мбайт (16%)
    Заголовок : V. Nazarov DTS 5.1, 1509 kbps
    Язык : Russian
    Default : Нет
    Forced : Нет
    Аудио #3
    Идентификатор : 4
    Формат : DTS
    Формат/Информация : Digital Theater Systems
    Режим : 16
    Параметр Endianness формата : Big
    Идентификатор кодека : A_DTS
    Продолжительность : 1 ч. 33 м.
    Вид битрейта : Постоянный
    Битрейт : 1509 Кбит/сек
    Каналы : 6 каналов
    Расположение каналов : Front: L C R, Side: L R, LFE
    Частота : 48,0 КГц
    Битовая глубина : 24 бит
    Метод сжатия : С потерями
    Размер потока : 1014 Мбайт (16%)
    Заголовок : DTS 5.1, 1509 kbps
    Язык : German
    Default : Нет
    Forced : Нет
    Текст #1
    Идентификатор : 5
    Формат : UTF-8
    Идентификатор кодека : S_TEXT/UTF8
    Идентификатор кодека/Информация : UTF-8 Plain Text
    Язык : German
    Default : Нет
    Forced : Нет
    Текст #2
    Идентификатор : 6
    Формат : UTF-8
    Идентификатор кодека : S_TEXT/UTF8
    Идентификатор кодека/Информация : UTF-8 Plain Text
    Язык : English
    Default : Нет
    Forced : Нет
    Меню
    00:00:00.000 : en:Chapter 1
    00:06:49.875 : en:Chapter 2
    00:13:20.625 : en:Chapter 3
    00:16:47.750 : en:Chapter 4
    00:22:59.375 : en:Chapter 5
    00:27:59.415 : en:Chapter 6
    00:34:27.583 : en:Chapter 7
    00:40:40.583 : en:Chapter 8
    00:50:06.041 : en:Chapter 9
    00:59:00.833 : en:Chapter 10
    01:04:15.166 : en:Chapter 11
    01:09:40.875 : en:Chapter 12
    01:15:05.207 : en:Chapter 13
    01:21:46.375 : en:Chapter 14
    01:28:24.375 : en:Chapter 15

    Скриншоты

    Скачать .torrent

    Скачать торрент-файл бесплатно и на максимальной скорости!

    Как скачивать? · Что такое торрент? · Рейтинг и ограничения

    !ВНИМАНИЕ!
    Сайт не распространяет и не хранит электронные версии произведений, а занимается лишь лишь предоставлением доступа к создаваемому пользователями каталогу ссылок на торрент-файлы, которые содержат только списки хеш-сумм, убедительная просьба с жалобами обращаться напрямую к пользователю. Файлы для обмена на трекере предоставлены пользователями сайта, и администрация не несёт ответственности за их содержание. Просьба не заливать файлы, защищенные авторскими правами, а также файлы нелегального содержания!


    _________________
    [Профиль] [ЛС]
    Показать сообщения:    
    Ответить на тему

    Текущее время: Сегодня, в 10:37

    Часовой пояс: GMT + 2



    Вы не можете начинать темы
    Вы не можете отвечать на сообщения
    Вы не можете редактировать свои сообщения
    Вы не можете удалять свои сообщения
    Вы не можете голосовать в опросах
    Вы не можете прикреплять файлы к сообщениям
    Вы не можете скачивать файлы