BitTorrentTracker PerecTracker.org
BitTorrentTracker PerecTracker.org
    
Регистрация  ·  Вход
 
 · 
Забыли пароль?

  • Лето. Пляж 2 / Teen Beach 2 (Джеффри Хорнадэй / Jeffrey Hornaday) [2015, США, Комедия, Мюзикл, WEB-DLRip] Dub

    Ответить на тему
     
    Автор Сообщение

    Light

    Создавать темы 21-Мар-2016 14:08

           

    [Цитировать]

    -Лето. Пляж 2Teen Beach 2-Страна: США
    Жанр: Комедия, Мюзикл
    Год выпуска
    : 2015
    Продолжительность: 01:43:48-Перевод: Профессиональный (дублированный)
    Cубтитры: нет
    Режиссер
    : Джеффри Хорнадэй / Jeffrey Hornaday-В ролях: Грэйс Фиппс, Майя Митчелл, Джордан Фишер, Росс Линч, Гарретт Клэйтон, Крисси Фит, Пайпер Кёрда, Молли Грэй, Росс Батлер, Джон ДеЛука, Кент Бойд, Чедд Смит-Описание: День за днем ребята загорают, катаются на серфе и радуются солнышку. Они ни о чем не заботятся до последнего дня каникул. Когда же приходит пора вернуться, друзья понимают, что не могут этого сделать. Пляж оказывается зачарованным местечком. Кто-то здесь исчезает на время, а кто-то просто становится обладателем «мультяшного» голоса. Ребята понимают, что им вновь придется создать и продемонстрировать уникальный мюзикл. Но как это сделать, если один из мальчиков пропал, а одна из девочек начала пищать, как мышка? Компании придется уговаривать обитателей магического пляжа. Такие переговоры — совсем непростое дело.--Качество видео: WEB-DLRip
    Формат видео: AVI
    Видео: 720x400 (1.80:1), 23.976 fps, XviD build 50 ~1684 kbps avg, 0.24 bit/pixel
    Аудио: 48 kHz, AC3 Dolby Digital, 2/0 (L,R) ch, ~192 kbps-

    MediaInfo

    General
    Complete name : D:\Фильмы\Teen.Beach.2.2015.D.WEB-DLRip.avi
    Format : AVI
    Format/Info : Audio Video Interleave
    File size : 1.37 GiB
    Duration : 1h 43mn
    Overall bit rate : 1 886 Kbps
    Writing application : VirtualDubModRus 1.5.10.1 (build 2439/release)
    Writing library : VirtualDubMod build 2439/release
    Video
    ID : 0
    Format : MPEG-4 Visual
    Format profile : Advanced Simple@L5
    Format settings, BVOP : 2
    Format settings, QPel : No
    Format settings, GMC : No warppoints
    Format settings, Matrix : Default (MPEG)
    Codec ID : XVID
    Codec ID/Hint : XviD
    Duration : 1h 43mn
    Bit rate : 1 685 Kbps
    Width : 720 pixels
    Height : 400 pixels
    Display aspect ratio : 16:9
    Frame rate : 23.976 (23976/1000) fps
    Color space : YUV
    Chroma subsampling : 4:2:0
    Bit depth : 8 bits
    Scan type : Progressive
    Compression mode : Lossy
    Bits/(Pixel*Frame) : 0.244
    Stream size : 1.22 GiB (89%)
    Writing library : XviD 1.2.1 (UTC 2008-12-04)
    Audio
    ID : 1
    Format : AC-3
    Format/Info : Audio Coding 3
    Mode extension : CM (complete main)
    Format settings, Endianness : Big
    Codec ID : 2000
    Duration : 1h 43mn
    Bit rate mode : Constant
    Bit rate : 192 Kbps
    Channel(s) : 2 channels
    Channel positions : Front: L R
    Sampling rate : 48.0 KHz
    Frame rate : 31.250 fps (1536 spf)
    Compression mode : Lossy
    Stream size : 143 MiB (10%)
    Alignment : Split accross interleaves
    Interleave, duration : 42 ms (1.00 video frame)
    Interleave, preload duratio : 500 ms

    -

    Скриншот c названием фильма

    Скриншоты

    -
    Скачать .torrent

    Скачать торрент-файл бесплатно и на максимальной скорости!

    Как скачивать? · Что такое торрент? · Рейтинг и ограничения

    !ВНИМАНИЕ!
    Сайт не распространяет и не хранит электронные версии произведений, а занимается лишь лишь предоставлением доступа к создаваемому пользователями каталогу ссылок на торрент-файлы, которые содержат только списки хеш-сумм, убедительная просьба с жалобами обращаться напрямую к пользователю. Файлы для обмена на трекере предоставлены пользователями сайта, и администрация не несёт ответственности за их содержание. Просьба не заливать файлы, защищенные авторскими правами, а также файлы нелегального содержания!


    _________________
    [Профиль] [ЛС]
    Показать сообщения:    
    Ответить на тему

    Текущее время: Сегодня, в 08:51

    Часовой пояс: GMT + 2



    Вы не можете начинать темы
    Вы не можете отвечать на сообщения
    Вы не можете редактировать свои сообщения
    Вы не можете удалять свои сообщения
    Вы не можете голосовать в опросах
    Вы не можете прикреплять файлы к сообщениям
    Вы не можете скачивать файлы